网盘分享吧

 找回密码
 立即注册

QQ登录

只需一步,快速开始

< >
查看: 38|回复: 8

[BD-1080P] [2009][电锯惊魂6][美国][恐怖][内封英语中英特效双字][BD-MKV/9.15G][无水印][1080P][HEVC]

[复制链接]

主题
27
积分
1940
热心值
80
金币
672
注册时间
2022-9-28
最后登录
2022-12-2
在线时间
36 小时

活跃会员最佳新人

发表于 2022-11-24 23:27 | 显示全部楼层 |阅读模式

赞助VIP可享受免金币查看特权  点击这里充值金币或者开通VIP 购买前先点击分享链接验证是否有效!
BT资源无法下载:戳这里,如何发布售价资源帖?:戳这里      《避免 分享链接失效 的方法?》


电锯惊魂6.jpg

◎译  名 电锯惊魂6 / 夺魂锯6(台) / 恐惧斗室6万罚朝中(港) / 你死我活6 / 链锯惊魂6
◎片  名 Saw VI
◎年  代 2009
◎产  地 美国 / 加拿大
◎类  别 悬疑 / 惊悚 / 恐怖
◎语  言 英语
◎上映日期 2009-10-23(美国)
◎片  长 90分钟 / 92分钟(导演剪辑版)
◎导  演 凯文·格劳特 / Kevin Greutert
◎演  员 托宾·贝尔 / Tobin Bell / 饰 竖锯 / 约翰·克莱默 Jigsaw / John Kramer
       科斯塔斯·曼迪勒 / Costas Mandylor / 饰 霍夫曼 Hoffman
       马克·罗斯顿 / Mark Rolston / 饰 埃里克森 Erickson
       贝茜·拉塞尔 / Betsy Russell / 饰 吉尔 Jill
       肖妮·史密斯 / Shawnee Smith / 饰 阿曼达 Amanda
       彼德·奥德博拉治 / Peter Outerbridge / 饰 威廉 William
       雅典娜·卡尔卡尼斯 / Athena Karkanis / 饰 佩雷斯 Agent Perez
       萨曼莎·莱摩尔 / Samantha Lemole / 饰 帕梅拉·詹金斯 Pamela Jenkins
       坦迪亚·霍华德 / Tanedra Howard / 饰 西蒙妮 Simone
       马蒂·莫罗 / Marty Moreau / 饰 埃迪 Eddie
       肖恩·艾哈迈德 / Shawn Ahmed / 饰 艾伦 Allen
       珍妮尔·哈奇森 / Janelle Hutchison / 饰 艾迪 Addy
       格里·曼迪西诺 / Gerry Mendicino / 饰 看门人 Janitor
       卡罗琳·凯芙 / Caroline Cave / 饰 黛比 Debbie
       乔治·纽伯恩 / George Newbern / 饰 哈罗德 Harold
       戴文·博斯蒂克 / Devon Bostick / 饰 布伦特 Brent
       泰妮卡 / 戴维斯 Tenika Davis / 饰 愤怒诊所女 Irate Clinic Woman
       梅兰妮·斯科洛凡诺 / Melanie Scrofano / 饰 珍娜 Gena
       肖娜·麦克唐纳德 / Shauna MacDonald / 饰 塔拉 Tara
       弗朗索瓦·沙加特 / François Sagat / 饰 男吸毒者 Male Addict
◎编  剧 帕特里克·梅尔顿 / Patrick Melton
       马库斯·邓斯坦 / Marcus Dunstan
◎制  片  人 温子仁 / James Wan
       雷·沃纳尔 / Leigh Whannell
◎音  乐 查理·克劳泽 / Charlie Clouser
◎化  妆 斯蒂芬妮·英格拉姆 / Stephanie Ingram

◎简  介 

  “竖锯”约翰·克莱默(Tobin Bell 饰)肉体虽死,但精神长存。这一次,某医疗保险公司的老总威廉·伊斯顿(Peter Outerbridge 饰)成为他狩猎和考验的目标。威廉贪婪狡诈,他发明了一套医保的计算公式,同时凭借爪牙的协助,成功向无数病入膏肓的人们拒保,从中赚取黑心钱财。然而他没有想到,自己有朝一日也要将生命的决定权交与别人手中。他必须按照“竖锯”的游戏规则,小心翼翼寻找逃生之路。
  另一方面,约翰门徒之一马克·霍夫曼(Costas Mandylor 饰)成功害死警官斯特朗,并试图将警方的注意力引到斯特朗身上来。然而种种迹象早已令同侪对马克的身份产生怀疑,他的身份即将被揭穿,而他违背约翰精神的暴力之路也慢慢走向尽头……

◎台词金句

  Jigsaw:Hello, Simone. As you can see, you face a choice, you will determine yours destiny. 竖锯:“你好,西蒙尼。就像你看到的,你面对着一个选择,你将决定自己的命运。”
  John:Everyone wants to control their own destiny, but the irony is that everyone but kept the waste with their own lives. Matthew:Do you think you can help people face their own life? John:Yes, at least let you know that your life is so beautiful.约翰:“每个人都想控制自己的命运,但讽刺的是每个人却又无时不刻在浪费着自己的生命。”马修:“你觉得你可以帮助人正视自己生命?”约翰:“是的,至少可以让你知道你的生活是如此美丽。”

◎幕后揭秘

  【一年一度杀人盛会】

  今年万圣节,竖锯先生与过去五年一样,依然如约前来,而铁打的竖锯流水的受害者,这次又换上新的一批受害者享受竖锯的折磨,导演也同样换了新人。一直担任系列剪辑工作的凯文·格劳特此次转正称为《电锯惊魂6》的导演,对于这个一直熟络不已的电影系列,凯文·格劳特说:“《电锯惊魂》系列令许多影迷为之疯狂、着迷,我想这与影片里各种杀人道具的发明者竖锯离不开关系。他不是一个简单的连环杀人狂,竖锯每一次行动都有着看上去非常正当、充满说服力的理由,他一直以来的信条就是要让人们正视自己生命的宝贵,而当这一点与血腥残忍的杀人游戏结合在一起的时候,那种奇妙的化学反应会令观众沉醉其中。所以《电锯惊魂》每一年都会产生轰动效应,观众们会激烈的讨论电影里的种种机关,还有托宾·贝尔所扮演的竖锯在电影里又留下了什么样的名言警句。而我想《电锯惊魂6》一定会让观众觉得,‘这游戏是至今为止最棒的’!”

  竖锯虽然在几年前就在电影里终结了生命,不过他的故事却一直没有完结,不停的闪回叙述着竖锯过去不为人知的故事。对于扮演竖锯的托宾·贝尔而言,这位年近70的老者已经凭借竖锯这一经典角色奠定了其在观众心目中的地位,而对于这部系列最新作,托宾·贝尔的看法是:“我最开始也并没有想到《电锯惊魂》能够获得这么大的成功,竖锯这个角色是一位体弱多病,风烛残年的老头子,就像我一样(笑)。但他却能够设计出许多复杂的杀人机关,并且有着逻辑性很强的理由去做,我想这种强烈的反差是影片有趣的地方之一。整个系列在不停的完善竖锯的经历,而我则在每次制作方给出的剧本里不停的和竖锯一起丰富着这位杀人狂的往昔。《电锯惊魂6》将会揭露一些竖锯的秘密,而且解释了第五集里箱子的来由,这些内容和过去的电影契合得不错,看来制作方或许早有准备。”

  【新游戏新玩法】

  影迷们最关心的,莫过于《电锯惊魂6》里又设置了什么样的杀人道具与竖锯相关的故事情节。对于这两点,凯文·格劳特说:“这次的《电锯惊魂6》将是整个系列最刺激与最疯狂的一次,而关于竖锯的段落,一定会令竖锯迷感到满意,因为本作会揭开竖锯在过去埋下最难以理解的伏笔。”

  而对于新作里出现的这些杀人道具灵感来源,曾经多次参与过《电锯惊魂》系列剧本编写工作的马库斯·邓斯坦说:“基本上这些玩意都是集体创作,大家都出了不少的点子,而我们定下的目标是要和过去的《电锯惊魂》系列有所关联,同时又不能让观众觉得有什么重复的地方。这的确是一个难题,但是大家最后做得很好,拍摄《电锯惊魂》系列,想象力真的很重要。”

  本片的摄影师大卫·A·阿姆斯特朗进一步补充了凯文·格劳特的话:“杀人道具非常有创意,一定会让观众觉得过目难忘。按照我的看法是,这些杀人道具高级别、多层次,将是《电锯惊魂》系列最具观赏性的一次。”

  扮演竖锯狂热信徒亚曼达的肖妮·史密斯,对于本片里的杀人场景也是激赞不已:“《电锯惊魂6》的杀人场面是集过去五集的大成,我不得不对整个制作团队能够想出这么多花招感到钦佩。在故事里我会和竖锯一起为观众讲述故事的真相,而某些段落里,大家可以明白《电锯惊魂6》里出现的杀人道具其实早已在过去埋下伏笔。”

◎传  送  门 

[2004][电锯惊魂][美国][恐怖][国英双语][内封中英特效双字][BD-MKV/14.8G][无水印][4K][HDR][HEVC]

[2005][电锯惊魂2][美国][恐怖][国英双语][内封中英特效双字][BD-MKV/10.4G][无水印][1080P][HEVC]

[2006][电锯惊魂3][美国][恐怖][国英双语][内封中英特效双字][BD-MKV/9.26G][无水印][1080P][HEVC]

[2007][电锯惊魂4][美国][恐怖][国英双语][内封中英特效双字][BD-MKV/10.3G][无水印][1080P][HEVC]

[2008][电锯惊魂5][美国][恐怖][国英双语][内封中英特效双字][BD-MKV/9.67G][无水印][1080P][HEVC]

[2009][电锯惊魂6][美国][恐怖][内封英语中英特效双字][BD-MKV/9.15G][无水印][1080P][HEVC]

[2010][电锯惊魂7][美国][恐怖][内封英语中英特效双字][BD-MKV/8.34G][无水印][1080P][HEVC]

[2017][电锯惊魂8:竖锯][美国][恐怖][内封英语中英特效双字][BD-MKV/18G][无水印][4K][HDR][HEVC]

[2021][电锯惊魂9:漩涡][美国][恐怖][内封英语中英特效双字][BD-MKV/20.5G][无水印][4K][HDR][HEVC]

◎温馨提醒 为防资源和谐,请勿在线观看!

电锯惊魂6.2009.BD1080P.HEVC.内封英语中英特效双字.mkv_000557.672.jpg

电锯惊魂6.2009.BD1080P.HEVC.内封英语中英特效双字.mkv_001255.822.jpg

电锯惊魂6.2009.BD1080P.HEVC.内封英语中英特效双字.mkv_003622.237.jpg

电锯惊魂6.2009.BD1080P.HEVC.内封英语中英特效双字.mkv_010757.297.jpg

电锯惊魂6.2009.BD1080P.HEVC.内封英语中英特效双字.mkv_012547.172.jpg

电锯惊魂6.2009.BD1080P.HEVC.内封英语中英特效双字.jpg

  1. General
  2. Complete name                  : 电锯惊魂6.2009.BD1080P.HEVC.内封英语中英特效双字.mkv
  3. Format                         : Matroska
  4. Format version                 : Version 4
  5. File size                      : 9.15 GiB
  6. Duration                       : 1 h 31 min
  7. Overall bit rate mode          : Variable
  8. Overall bit rate               : 14.3 Mb/s
  9. Encoded date                   : UTC 2021-10-26 04:47:46
  10. Writing application            : mkvmerge v60.0.0 ('Are We Copies?') 64-bit
  11. Writing library                : libebml v1.4.2 + libmatroska v1.6.4

  12. Video
  13. ID                             : 1
  14. Format                         : HEVC
  15. Format/Info                    : High Efficiency Video Coding
  16. Format profile                 : Main 10@L5.1@High
  17. Codec ID                       : V_MPEGH/ISO/HEVC
  18. Duration                       : 1 h 31 min
  19. Bit rate                       : 8 755 kb/s
  20. Width                          : 1 920 pixels
  21. Height                         : 1 080 pixels
  22. Display aspect ratio           : 16:9
  23. Frame rate mode                : Constant
  24. Frame rate                     : 23.976 (24000/1001) FPS
  25. Color space                    : YUV
  26. Chroma subsampling             : 4:2:0
  27. Bit depth                      : 10 bits
  28. Bits/(Pixel*Frame)             : 0.176
  29. Stream size                    : 5.61 GiB (61%)
  30. Title                          : HEVC, x265Main10@L5.1@High, 24/1.001 fps @ 8754 kbps
  31. Writing library                : x265 3.3+1-g396395b2b:[Windows][GCC 9.2.0][64 bit] 10bit
  32. Language                       : English
  33. Default                        : Yes
  34. Forced                         : No
  35. Color range                    : Limited
  36. Color primaries                : BT.709
  37. Transfer characteristics       : BT.709
  38. Matrix coefficients            : BT.709

  39. Audio
  40. ID                             : 2
  41. Format                         : DTS XLL
  42. Format/Info                    : Digital Theater Systems
  43. Commercial name                : DTS-HD Master Audio
  44. Codec ID                       : A_DTS
  45. Duration                       : 1 h 31 min
  46. Bit rate mode                  : Variable
  47. Bit rate                       : 5 318 kb/s
  48. Channel(s)                     : 8 channels
  49. Channel layout                 : C L R LFE Lb Rb Lss Rss
  50. Sampling rate                  : 48.0 kHz
  51. Frame rate                     : 93.750 FPS (512 SPF)
  52. Bit depth                      : 24 bits
  53. Compression mode               : Lossless
  54. Stream size                    : 3.40 GiB (37%)
  55. Title                          : 原声英语
  56. Language                       : English
  57. Default                        : Yes
  58. Forced                         : No

  59. Text #1
  60. ID                             : 3
  61. Format                         : PGS
  62. Muxing mode                    : zlib
  63. Codec ID                       : S_HDMV/PGS
  64. Codec ID/Info                  : Picture based subtitle format used on BDs/HD-DVDs
  65. Duration                       : 1 h 31 min
  66. Bit rate                       : 240 kb/s
  67. Frame rate                     : 1.319 FPS
  68. Count of elements              : 7224
  69. Stream size                    : 157 MiB (2%)
  70. Title                          : 中英特效字幕. By.开心兔
  71. Language                       : Chinese
  72. Default                        : Yes
  73. Forced                         : No

  74. Text #2
  75. ID                             : 4
  76. Format                         : PGS
  77. Muxing mode                    : zlib
  78. Codec ID                       : S_HDMV/PGS
  79. Codec ID/Info                  : Picture based subtitle format used on BDs/HD-DVDs
  80. Duration                       : 1 h 31 min
  81. Bit rate                       : 210 kb/s
  82. Frame rate                     : 1.319 FPS
  83. Count of elements              : 7224
  84. Stream size                    : 137 MiB (1%)
  85. Title                          : 简中特效字幕. By.开心兔
  86. Language                       : Chinese
  87. Default                        : No
  88. Forced                         : No
复制代码

链接:https://www.aliyundrive.com/s/mpkJhjhgq5W
购买主题 本主题需向作者支付 12 金币 才能浏览
楼主热帖
人生得意须尽欢,莫使金樽空对月。

主题
27
积分
1940
热心值
80
金币
672
注册时间
2022-9-28
最后登录
2022-12-2
在线时间
36 小时

活跃会员最佳新人

 楼主| 发表于 2022-11-26 12:18 | 显示全部楼层
我来顶顶顶...贴来了└(^o^)┘。
人生得意须尽欢,莫使金樽空对月。
回复

使用道具 举报

主题
4
积分
2394
热心值
51
金币
63
注册时间
2022-7-22
最后登录
2022-12-1
在线时间
45 小时

最佳新人活跃会员

发表于 2022-11-25 09:58 | 显示全部楼层
好高兴,终于找到这个资源了!
DR-DZ618H3妇科综合治疗机,DR-DZ68Y2-1,DR-DXJ2激光恒热综合治疗机,DR-DX828C,
微生态抗菌棒,思蜜康抗菌液
回复

使用道具 举报

主题
0
积分
5483
热心值
280
金币
583
注册时间
2021-4-14
最后登录
2022-12-2
在线时间
129 小时

最佳新人活跃会员

发表于 2022-11-25 09:44 | 显示全部楼层
好资源,感谢楼主无私的分享与奉献!

① www.wpfx8.com 欢迎您分享自己的网盘资源!分享越多,金币越多!资源互利共享,我为人人,人人为我!
② 每个人都可以在本站发布资源帖,同时本站所有资源都需要金币才能下载!但是,只要你发布几十个优秀资源帖,基本上,你就会源源不断地获得金币了!
③ 如果发现违规广告资源,请点击帖子正文右下角的“举报”按钮。一般资源发布是有效的,时过境迁因为各种各样的原因,资源有可能失效。如果购买后发现资源失效或者资源和帖子内容描述不符,请到首页 [问题/意见反馈区] 发帖说明原因后申请退币。如“资源失效,申请退币”,管理员核实后会退币给您的。

回复

使用道具 举报

主题
9
积分
902
热心值
49
金币
73
注册时间
2022-10-16
最后登录
2022-12-2
在线时间
24 小时
发表于 2022-11-25 07:06 | 显示全部楼层
看看 才看完8又来6了 这个片子 听说吓人!!!

① www.wpfx8.com 欢迎您分享自己的网盘资源!分享越多,金币越多!资源互利共享,我为人人,人人为我!
② 每个人都可以在本站发布资源帖,同时本站所有资源都需要金币才能下载!但是,只要你发布几十个优秀资源帖,基本上,你就会源源不断地获得金币了!
③ 如果发现违规广告资源,请点击帖子正文右下角的“举报”按钮。一般资源发布是有效的,时过境迁因为各种各样的原因,资源有可能失效。如果购买后发现资源失效或者资源和帖子内容描述不符,请到首页 [问题/意见反馈区] 发帖说明原因后申请退币。如“资源失效,申请退币”,管理员核实后会退币给您的。

回复

使用道具 举报

主题
0
积分
2611
热心值
55
金币
179
注册时间
2022-5-10
最后登录
2022-12-2
在线时间
37 小时
发表于 2022-11-25 06:54 | 显示全部楼层
谢谢楼主分享

① www.wpfx8.com 欢迎您分享自己的网盘资源!分享越多,金币越多!资源互利共享,我为人人,人人为我!
② 每个人都可以在本站发布资源帖,同时本站所有资源都需要金币才能下载!但是,只要你发布几十个优秀资源帖,基本上,你就会源源不断地获得金币了!
③ 如果发现违规广告资源,请点击帖子正文右下角的“举报”按钮。一般资源发布是有效的,时过境迁因为各种各样的原因,资源有可能失效。如果购买后发现资源失效或者资源和帖子内容描述不符,请到首页 [问题/意见反馈区] 发帖说明原因后申请退币。如“资源失效,申请退币”,管理员核实后会退币给您的。

回复

使用道具 举报

主题
22
积分
3585
热心值
124
金币
245
注册时间
2022-5-29
最后登录
2022-12-2
在线时间
180 小时

最佳新人活跃会员灌水之王

发表于 2022-11-25 06:04 | 显示全部楼层
楼主加油,希望有更好的百度云资源为大家提供!非常感谢!

① www.wpfx8.com 欢迎您分享自己的网盘资源!分享越多,金币越多!资源互利共享,我为人人,人人为我!
② 每个人都可以在本站发布资源帖,同时本站所有资源都需要金币才能下载!但是,只要你发布几十个优秀资源帖,基本上,你就会源源不断地获得金币了!
③ 如果发现违规广告资源,请点击帖子正文右下角的“举报”按钮。一般资源发布是有效的,时过境迁因为各种各样的原因,资源有可能失效。如果购买后发现资源失效或者资源和帖子内容描述不符,请到首页 [问题/意见反馈区] 发帖说明原因后申请退币。如“资源失效,申请退币”,管理员核实后会退币给您的。

回复

使用道具 举报

主题
2
积分
5621
热心值
161
金币
329
注册时间
2022-5-3
最后登录
2022-12-2
在线时间
153 小时

最佳新人活跃会员

发表于 2022-11-25 01:45 | 显示全部楼层
楼主加油,希望有更好的网盘资源为大家分享,非常感谢!
世事洞明皆学问,人情练达即文章。
回复

使用道具 举报

主题
2
积分
5573
热心值
55
金币
208
注册时间
2022-3-22
最后登录
2022-12-1
在线时间
44 小时

最佳新人活跃会员

发表于 2022-11-25 00:41 | 显示全部楼层
好资源,感谢楼主无私的分享与奉献!

① www.wpfx8.com 欢迎您分享自己的网盘资源!分享越多,金币越多!资源互利共享,我为人人,人人为我!
② 每个人都可以在本站发布资源帖,同时本站所有资源都需要金币才能下载!但是,只要你发布几十个优秀资源帖,基本上,你就会源源不断地获得金币了!
③ 如果发现违规广告资源,请点击帖子正文右下角的“举报”按钮。一般资源发布是有效的,时过境迁因为各种各样的原因,资源有可能失效。如果购买后发现资源失效或者资源和帖子内容描述不符,请到首页 [问题/意见反馈区] 发帖说明原因后申请退币。如“资源失效,申请退币”,管理员核实后会退币给您的。

回复

使用道具 举报

点击按钮快速添加回复内容: 超赞 高兴 激动 给力 收藏 支持 期待 顶帖 精彩 感谢
您需要登录后才可以回帖 登录 | 立即注册

本版积分规则

站长邮箱|sitemap|手机版|小黑屋|百度统计|标签搜索|网盘分享吧

GMT+8, 2022-12-2 15:28 , Processed in 0.242248 second(s), 46 queries .

Powered by Discuz! X3.4

Copyright © 2001-2021, Tencent Cloud.

快速回复 返回顶部 返回列表