网盘分享吧

 找回密码
 立即注册

QQ登录

只需一步,快速开始

查看: 52|回复: 6

[BD-1080P] [2007][电锯惊魂4][美国][恐怖][国英双语][内封中英特效双字][BD-MKV/10.3G][无水印][1080P][HEVC]

[复制链接]

主题
27
积分
1940
热心值
80
金币
672
注册时间
2022-9-28
最后登录
2022-12-2
在线时间
36 小时

活跃会员最佳新人

发表于 2022-11-24 23:18 | 显示全部楼层 |阅读模式

赞助VIP可享受免金币查看特权  点击这里充值金币或者开通VIP 购买前先点击分享链接验证是否有效!
BT资源无法下载:戳这里,如何发布售价资源帖?:戳这里      《避免 分享链接失效 的方法?》


电锯惊魂4.jpg

◎译  名 电锯惊魂4 / 夺魂锯4(台) / 恐惧斗室4回头是岸(港) / 你死我活4 / 链锯惊魂4
◎片  名 Saw IV
◎年  代 2007
◎产  地 美国 / 加拿大
◎类  别 悬疑 / 惊悚 / 恐怖
◎语  言 英语
◎上映日期 2007-10-26(美国)
◎片  长 93分钟 / 96分钟(未分级版)
◎导  演 达伦·林恩·鲍斯曼 / Darren Lynn Bousman
◎演  员 托宾·贝尔 / Tobin Bell / 饰 竖锯 / 约翰·克莱默 Jigsaw / John Kramer
       科斯塔斯·曼迪勒 / Costas Mandylor / 饰 马克·霍夫曼 Lt. Mark Hoffman
       斯科特·帕特森 / Scott Patterson / 饰 皮特·斯特拉姆 Agent Peter Strahm
       贝茜·拉塞尔 / Betsy Russell / 饰 吉尔·塔克 Jill Tuck
       雷瑞克·本特 / Lyriq Bent / 饰 丹尼尔·里格 Lt. Daniel Rigg
       雅典娜·卡尔卡尼斯 / Athena Karkanis / 饰 林赛·佩雷斯 Agent Lindsey Perez
       路易斯·费雷拉 / Louis Ferreira / 饰 阿特·布兰克 Art Blank
       西蒙·雷诺兹 / Simon Reynolds / 饰 拉曼纳 Lamanna
       唐尼·沃尔伯格 / Donnie Wahlberg / 饰 埃里克·马修 Eric Matthews
       安古斯·麦克菲登 / Angus Macfadyen / 饰 杰夫·戴伦 Jeff Denlon
       肖妮·史密斯 / Shawnee Smith / 饰 阿曼达·杨 Amanda Young
       巴哈·索莫克 / Bahar Soomekh / 饰 莲恩·戴伦 Lynn Denlon
       迪娜·迈耶 / Dina Meyer / 饰 埃里森·克里 Detective Allison Kerry
       迈克·瑞巴 / Mike Realba / 饰 菲斯克 Detective Fisk
       马蒂·亚当斯 / Marty Adams / 饰 伊凡 Ivan Landsness
       英格丽德·哈特 / Ingrid Hart / 饰 翠西·里格 Tracy Rigg
       罗恩·利 / Ron Lea / 饰 雷克斯 Rex
       凯文·拉什顿 / Kevin Rushton / 饰 特雷弗 Trevor
       莎琳·博伊兰 / Sarain Boylan / 饰 布兰达 Brenda
◎编  剧 帕特里克·梅尔顿 / Patrick Melton
       马库斯·邓斯坦 / Marcus Dunstan
       汤马斯·芬顿 / Thomas Fenton
◎制  片  人 温子仁 / James Wan
       雷·沃纳尔 / Leigh Whannell
◎音  乐 查理·克劳泽 / Charlie Clouser
◎剪  辑 凯文·格劳特 / Kevin Greutert
◎化  妆 斯蒂芬妮·英格拉姆 / Stephanie Ingram

◎简  介 

  SWAT指挥官瑞格(莱瑞克·本特 饰)突然被绑架,卷入了一场致命游戏,他必须在一个半小时之内过关斩将,躲过一个比一个恐怖的陷阱,才能保住性命。经验十足的FBI探员斯琼姆(斯科特·派特森 饰)来到被折磨得筋疲力尽的警察局,协助警探一起研究被竖锯玩死的受害者尸体,试图找出蛛丝马迹。随着调查的深入,竖锯变态的起因以及他邪恶的计划渐渐浮出水面……

◎台词金句

  Jigsaw: You think it is over, but the games have just begun.
  拼图杀人狂:你认为一切已经结束的时候,游戏才刚刚开始。

  Jigsaw: I can assure you detective, my games have just begun.
  拼图杀人狂:我可以很明确地告诉你,侦探先生,我的游戏才刚刚开始。

  Jigsaw: I promise that my work will continue.
  拼图杀人狂:我发誓,我的游戏会一直持续下去。

  Cecil: Woah! Wh-what the fuck is that?
  Jigsaw: It's the tool that's going to save your life. I want to play a game. You just lean foward into the knives with your face. Press hard enough and you'll release the arm and the leg restraints that bind you. Press hard though. Live or die, Cecil. Make your choice.
  塞西尔:哇哦!那该死的是什么?
  拼图杀人狂:那是能够救你命的工具,我想玩一个游戏,你只要把你的脸尽最大可能靠在这些匕首的刀刃上,当你挤压得足够用力时,你胳膊和腿上的束缚就会松开,记住,一定要足够用力。塞西尔,生与死,你自己选择吧。

◎幕后揭秘

  【一年一次“惊魂”】

  “这到底该死的是怎么回事?我在哪儿?”--同样的话,出现在2004年的《电锯惊魂》刚开始两分钟的时候,却是对整个故事主要情感的最直接体现:因为绝望而混乱,因为无能而力而害怕,当然,还包括那种彻底惊慌失措的恐惧感,构成了这部来自于狮门影业的恐怖电影的核心内容。所以说,影片之所以取得了如此巨大的成就,其在情感的营造方面算得上是一个关键。

  所有的《电锯惊魂》系列电影都是围绕着“拼图杀人狂”所设下的一个又一个诡计展开的,至于他自己,则是一个病入膏肓的癌症患者,因为严格到近乎于苛刻的道德取向,而变成了一个专门设计可怕的“生存游戏”的天才,被他选中参与游戏的玩家,没有拒绝的权利,都是一些他相信没有价值和生存必要的人……用紧张感和创造性互相咬合,《电锯惊魂》以其奏出的独特和弦音符触动着这个世界上每一个人的神经,从经典如《月光光心慌慌》系列和《猛鬼街》系列这样的作品手中拿过了那棍可以统领恐怖电影界的指挥棒,甚至变成了一个衡量文化的标准,无论是就院线还是DVD这样的家庭影院方面,都是电影史上收获利润值最高的电影系列之一。目前为止,上映的三部《电锯惊魂》已经在全世界收入超过4亿美元的票房,而它们的相关DVD产品也卖出超过一千三百万套了。看来,正是这套系列电影帮助狮门影业在恐怖电影领域中独占鳌头,从前期的院线推广到后期的DVD消费品,都是当之无愧的No.1。

  在展开如此宏大的旅程之前,《电锯惊魂》的首次亮相是在2004年的圣丹斯电影节上,作为其中一个单元的参展影片,给人们留下了震撼和意味深长,电影节的主管杰弗里·吉尔摩(Geoffrey Gilmore)每一年都负责筛选影片,而他独独对这部影片的制作者竟然能够如此巧妙地掌握控制形式和主题,留下了非常深刻的印象,吉尔摩回忆道:“《电锯惊魂》从切入画面开始,就紧紧地抓住了观众的视线,它是如此大胆,在结构的设计方面也非常聪明,带给人们的是一种非常坦率直接的恐惧。不过,让影片真正变得与众不同的,其实是它那道德上的严肃性,故事从头到尾,并不只是想着如何才能吓到你,而是将你拉进来,与角色一起思考,要怎么做才能最终活下来。在当代的世界里,无论作为个人还是社会的一个成员,你都应该知道这是一件重要到值得深思的事情。”

  当《电锯惊魂》以它独有的方式继续着,一年一部,故事也开始更深层地挖掘“拼图杀人狂”的信仰和世界观。雷·沃纳尔--与詹姆斯·温共同创作了第一部《电锯惊魂》的原创故事,同时还参与了《电锯惊魂2》和《电锯惊魂3》的编剧工作,以他的话说就是:“因为身患癌症,使得‘拼图杀人狂’对生命有了更深的感触,因为我们很少有机会可以离死亡如此之近。但是,他并不是那种会用简单的‘及时行乐’去安慰自己的人,更不想去欧洲旅行见见世面,而是将生存价值的概念作为一个出发点,去观察别人的道德选择。‘拼图杀人狂’不停地深入这些观点,最终促使他制造了这种独特的‘生存游戏’。虽然游戏本身是非常变态的,但他的目的却是要帮助人们,用自己对哲学的爱好或所谓的‘为他人着想’的好心……这正是我喜欢这个角色的原因,要我说,他在恐惧领域中,是一个不折不扣的异类。”

  【70年代电影理念的回潮】

  如今看来,《电锯惊魂》系列已经成为恐怖电影浪潮中的一个小浪尖,更是与上世纪70年代的那些独立恐怖制作形成了一种非常有趣的对照,它们都将在纽约博物馆的一个突出展厅里留下自己的足迹,那里将举办一个名叫“只是一部电影--来自于上世纪70年代和当代的恐怖作品”的展映,用连续6个周末的时间回顾了一些经典的名作,包括1972年韦斯·克雷文的《魔屋》和1974年托比·霍珀的《德州电锯杀人狂》这种靠有冲击力的大桶血浆和对人类行为烦扰的探索而震撼了当时观众的影片……然后,让我们回到现代,也就是《电锯惊魂》统领的时代,包括达伦·林恩·鲍斯曼执导的《电锯惊魂2》,里面同样具备足以让观众恐惧和惊异的画面和故事,换句话说,它们做到了那些70年代电影做到的一切。“只是一部电影”展映还做出了一个有趣的举动,那就是将来自于两个时代的电影进行配对,而《电锯惊魂2》则和斯坦利·库布里克的《发条橘子》分在了一个组里。

  2007年6月,博物馆的馆长大卫·施瓦兹(David Schwartz)宣布展映开始的时候说:“这些影片都拥有相当的美感和文化影响,清晰地反射出所处年代的人类的恐惧之源……当然,我们也意识到这些影片的内容容易引起困扰,还有充满震撼的画面,但是它们却讲述了一个又一个有力度的故事,探索了你最深层的渴望。”副馆长莉维娅·布鲁姆也对此表示同意:“我们只能说,这些电影人是在借恐怖故事套用商业的结构,然后制作了这些与痛苦随行、甚至带来颠覆性的破坏力的影片。他们的作品检验了一些深刻的心理问题,而且对当时的社会和政治议题还进行了评论。”当说到《电剧惊魂》时,布鲁姆则认为:“它拥有让人晕眩的痛苦场面,是对经历了战争和灾难的现代人的一种反思。”

  《电锯惊魂》系列在主题和风格上的连续性主要归功于影片幕后那稳定且坚固的制作团队,包括创始人詹姆斯·温和雷·沃纳尔,而编剧兼导演达伦·林恩·鲍斯曼则是在第二集的时候加入进来的;制片人欧伦·寇尔斯(Oren Koules)、马克·伯格(Mark Burg)以及2005年12月4日突然去世的格雷格·霍夫曼(Gregg Hoffman);执行制片史黛西·泰斯特罗(Stacey Testro)、彼得·布洛克(Peter Block)和杰森·康斯坦丁(Jason Constantine)。至于其他创作成员也是从一开始就跟随在这部系列左右,有摄影师大卫·阿姆斯壮(David Armstrong),美工师大卫·哈克尔(David Hackl),剪辑师凯文·古鲁特(Kevin Greutert),配乐师查理·克劳泽(Charlie Clouser)--他曾经是“九寸钉”乐队的成员。

  在“拼图杀人狂”设计的那些难以理解到异常复杂的游戏中,《电锯惊魂》系列逐步揭开了层层递进的故事线索。影片本身就好像是一个更大的智力拼图,每一部续集都能起到承前启后的良好衔接,如今,《电锯惊魂4》选在了万圣节的时候登陆院线,随着有谜底的揭开,却也制造了更大的谜团。但有一点是不会变的,那就是下一批不幸卷入“拼图杀人狂”的游戏中的人,仍然会以那句著名的“我们到底在哪里”开始他们痛苦的遭遇。

◎传  送  门 

[2004][电锯惊魂][美国][恐怖][国英双语][内封中英特效双字][BD-MKV/14.8G][无水印][4K][HDR][HEVC]

[2005][电锯惊魂2][美国][恐怖][国英双语][内封中英特效双字][BD-MKV/10.4G][无水印][1080P][HEVC]

[2006][电锯惊魂3][美国][恐怖][国英双语][内封中英特效双字][BD-MKV/9.26G][无水印][1080P][HEVC]

[2007][电锯惊魂4][美国][恐怖][国英双语][内封中英特效双字][BD-MKV/10.3G][无水印][1080P][HEVC]

[2008][电锯惊魂5][美国][恐怖][国英双语][内封中英特效双字][BD-MKV/9.67G][无水印][1080P][HEVC]

[2009][电锯惊魂6][美国][恐怖][内封英语中英特效双字][BD-MKV/9.15G][无水印][1080P][HEVC]

[2010][电锯惊魂7][美国][恐怖][内封英语中英特效双字][BD-MKV/8.34G][无水印][1080P][HEVC]

[2017][电锯惊魂8:竖锯][美国][恐怖][内封英语中英特效双字][BD-MKV/18G][无水印][4K][HDR][HEVC]

[2021][电锯惊魂9:漩涡][美国][恐怖][内封英语中英特效双字][BD-MKV/20.5G][无水印][4K][HDR][HEVC]

◎温馨提醒 为防资源和谐,请勿在线观看!

电锯惊魂4.2007.BD1080P.HEVC.国英双语.内封中英特效双字.mkv_000932.059.jpg

电锯惊魂4.2007.BD1080P.HEVC.国英双语.内封中英特效双字.mkv_001137.519.jpg

电锯惊魂4.2007.BD1080P.HEVC.国英双语.内封中英特效双字.mkv_002856.094.jpg

电锯惊魂4.2007.BD1080P.HEVC.国英双语.内封中英特效双字.mkv_011652.471.jpg

电锯惊魂4.2007.BD1080P.HEVC.国英双语.内封中英特效双字.mkv_012931.752.jpg

电锯惊魂4.2007.BD1080P.HEVC.国英双语.内封中英特效双字.jpg

  1. General
  2. Complete name                  : 电锯惊魂4.2007.BD1080P.HEVC.国英双语.内封中英特效双字.mkv
  3. Format                         : Matroska
  4. Format version                 : Version 4
  5. File size                      : 10.4 GiB
  6. Duration                       : 1 h 35 min
  7. Overall bit rate mode          : Variable
  8. Overall bit rate               : 15.5 Mb/s
  9. Encoded date                   : UTC 2021-10-26 04:14:42
  10. Writing application            : mkvmerge v60.0.0 ('Are We Copies?') 64-bit
  11. Writing library                : libebml v1.4.2 + libmatroska v1.6.4

  12. Video
  13. ID                             : 1
  14. Format                         : HEVC
  15. Format/Info                    : High Efficiency Video Coding
  16. Format profile                 : Main 10@L5.1@High
  17. Codec ID                       : V_MPEGH/ISO/HEVC
  18. Duration                       : 1 h 35 min
  19. Bit rate                       : 9 444 kb/s
  20. Width                          : 1 920 pixels
  21. Height                         : 1 080 pixels
  22. Display aspect ratio           : 16:9
  23. Frame rate mode                : Constant
  24. Frame rate                     : 23.976 (24000/1001) FPS
  25. Color space                    : YUV
  26. Chroma subsampling             : 4:2:0
  27. Bit depth                      : 10 bits
  28. Bits/(Pixel*Frame)             : 0.190
  29. Stream size                    : 6.30 GiB (61%)
  30. Title                          : HEVC, x265Main10@L5.1@High, 24/1.001 fps @ 9443 kbps
  31. Writing library                : x265 3.3+1-g396395b2b:[Windows][GCC 9.2.0][64 bit] 10bit
  32. Language                       : English
  33. Default                        : Yes
  34. Forced                         : No
  35. Color range                    : Limited
  36. Color primaries                : BT.709
  37. Transfer characteristics       : BT.709
  38. Matrix coefficients            : BT.709

  39. Audio #1
  40. ID                             : 2
  41. Format                         : DTS XLL
  42. Format/Info                    : Digital Theater Systems
  43. Commercial name                : DTS-HD Master Audio
  44. Codec ID                       : A_DTS
  45. Duration                       : 1 h 35 min
  46. Bit rate mode                  : Variable
  47. Bit rate                       : 5 566 kb/s
  48. Channel(s)                     : 8 channels
  49. Channel layout                 : C L R LFE Lb Rb Lss Rss
  50. Sampling rate                  : 48.0 kHz
  51. Frame rate                     : 93.750 FPS (512 SPF)
  52. Bit depth                      : 24 bits
  53. Compression mode               : Lossless
  54. Stream size                    : 3.71 GiB (36%)
  55. Title                          : 原声英语
  56. Language                       : English
  57. Default                        : Yes
  58. Forced                         : No

  59. Audio #2
  60. ID                             : 3
  61. Format                         : AC-3
  62. Format/Info                    : Audio Coding 3
  63. Commercial name                : Dolby Digital
  64. Codec ID                       : A_AC3
  65. Duration                       : 1 h 35 min
  66. Bit rate mode                  : Constant
  67. Bit rate                       : 320 kb/s
  68. Channel(s)                     : 2 channels
  69. Channel layout                 : L R
  70. Sampling rate                  : 48.0 kHz
  71. Frame rate                     : 31.250 FPS (1536 SPF)
  72. Compression mode               : Lossy
  73. Stream size                    : 219 MiB (2%)
  74. Title                          : 国语配音
  75. Language                       : Chinese
  76. Service kind                   : Complete Main
  77. Default                        : No
  78. Forced                         : No

  79. Text #1
  80. ID                             : 4
  81. Format                         : PGS
  82. Muxing mode                    : zlib
  83. Codec ID                       : S_HDMV/PGS
  84. Codec ID/Info                  : Picture based subtitle format used on BDs/HD-DVDs
  85. Duration                       : 1 h 31 min
  86. Bit rate                       : 222 kb/s
  87. Frame rate                     : 1.266 FPS
  88. Count of elements              : 6952
  89. Stream size                    : 145 MiB (1%)
  90. Title                          : 中英特效字幕. By.开心兔
  91. Language                       : Chinese
  92. Default                        : Yes
  93. Forced                         : No

  94. Text #2
  95. ID                             : 5
  96. Format                         : PGS
  97. Muxing mode                    : zlib
  98. Codec ID                       : S_HDMV/PGS
  99. Codec ID/Info                  : Picture based subtitle format used on BDs/HD-DVDs
  100. Duration                       : 1 h 31 min
  101. Bit rate                       : 195 kb/s
  102. Frame rate                     : 1.266 FPS
  103. Count of elements              : 6952
  104. Stream size                    : 128 MiB (1%)
  105. Title                          : 简中特效字幕. By.开心兔
  106. Language                       : Chinese
  107. Default                        : No
  108. Forced                         : No
复制代码

链接:https://www.aliyundrive.com/s/uvWXi9hg64p
购买主题 本主题需向作者支付 12 金币 才能浏览
楼主热帖
人生得意须尽欢,莫使金樽空对月。

主题
0
积分
1481
热心值
23
金币
86
注册时间
2022-8-9
最后登录
2022-12-1
在线时间
28 小时
发表于 2022-11-29 16:49 | 显示全部楼层
人生得意须尽欢,莫使金樽空对月

① www.wpfx8.com 欢迎您分享自己的网盘资源!分享越多,金币越多!资源互利共享,我为人人,人人为我!
② 每个人都可以在本站发布资源帖,同时本站所有资源都需要金币才能下载!但是,只要你发布几十个优秀资源帖,基本上,你就会源源不断地获得金币了!
③ 如果发现违规广告资源,请点击帖子正文右下角的“举报”按钮。一般资源发布是有效的,时过境迁因为各种各样的原因,资源有可能失效。如果购买后发现资源失效或者资源和帖子内容描述不符,请到首页 [问题/意见反馈区] 发帖说明原因后申请退币。如“资源失效,申请退币”,管理员核实后会退币给您的。

回复

使用道具 举报

主题
27
积分
1940
热心值
80
金币
672
注册时间
2022-9-28
最后登录
2022-12-2
在线时间
36 小时

活跃会员最佳新人

 楼主| 发表于 2022-11-27 13:58 | 显示全部楼层
我来顶顶顶...贴来了└(^o^)┘。
人生得意须尽欢,莫使金樽空对月。
回复

使用道具 举报

主题
0
积分
3169
热心值
128
金币
289
注册时间
2022-3-21
最后登录
2022-12-2
在线时间
91 小时
发表于 2022-11-25 09:00 | 显示全部楼层
感谢楼主分享好资源,收藏了~

① www.wpfx8.com 欢迎您分享自己的网盘资源!分享越多,金币越多!资源互利共享,我为人人,人人为我!
② 每个人都可以在本站发布资源帖,同时本站所有资源都需要金币才能下载!但是,只要你发布几十个优秀资源帖,基本上,你就会源源不断地获得金币了!
③ 如果发现违规广告资源,请点击帖子正文右下角的“举报”按钮。一般资源发布是有效的,时过境迁因为各种各样的原因,资源有可能失效。如果购买后发现资源失效或者资源和帖子内容描述不符,请到首页 [问题/意见反馈区] 发帖说明原因后申请退币。如“资源失效,申请退币”,管理员核实后会退币给您的。

回复

使用道具 举报

主题
0
积分
2572
热心值
99
金币
84
注册时间
2022-6-21
最后登录
2022-12-2
在线时间
47 小时
发表于 2022-11-25 08:31 | 显示全部楼层
谢谢分享!!!!!!

① www.wpfx8.com 欢迎您分享自己的网盘资源!分享越多,金币越多!资源互利共享,我为人人,人人为我!
② 每个人都可以在本站发布资源帖,同时本站所有资源都需要金币才能下载!但是,只要你发布几十个优秀资源帖,基本上,你就会源源不断地获得金币了!
③ 如果发现违规广告资源,请点击帖子正文右下角的“举报”按钮。一般资源发布是有效的,时过境迁因为各种各样的原因,资源有可能失效。如果购买后发现资源失效或者资源和帖子内容描述不符,请到首页 [问题/意见反馈区] 发帖说明原因后申请退币。如“资源失效,申请退币”,管理员核实后会退币给您的。

回复

使用道具 举报

主题
4
积分
6401
热心值
171
金币
302
注册时间
2022-3-29
最后登录
2022-12-2
在线时间
97 小时

最佳新人活跃会员

发表于 2022-11-25 07:48 | 显示全部楼层
反正这个系列我是不敢晚上一个人看

① www.wpfx8.com 欢迎您分享自己的网盘资源!分享越多,金币越多!资源互利共享,我为人人,人人为我!
② 每个人都可以在本站发布资源帖,同时本站所有资源都需要金币才能下载!但是,只要你发布几十个优秀资源帖,基本上,你就会源源不断地获得金币了!
③ 如果发现违规广告资源,请点击帖子正文右下角的“举报”按钮。一般资源发布是有效的,时过境迁因为各种各样的原因,资源有可能失效。如果购买后发现资源失效或者资源和帖子内容描述不符,请到首页 [问题/意见反馈区] 发帖说明原因后申请退币。如“资源失效,申请退币”,管理员核实后会退币给您的。

回复

使用道具 举报

主题
22
积分
3585
热心值
124
金币
245
注册时间
2022-5-29
最后登录
2022-12-2
在线时间
180 小时

最佳新人活跃会员灌水之王

发表于 2022-11-25 06:06 | 显示全部楼层
这是要火的节奏啊!激动人心,无法言表!

① www.wpfx8.com 欢迎您分享自己的网盘资源!分享越多,金币越多!资源互利共享,我为人人,人人为我!
② 每个人都可以在本站发布资源帖,同时本站所有资源都需要金币才能下载!但是,只要你发布几十个优秀资源帖,基本上,你就会源源不断地获得金币了!
③ 如果发现违规广告资源,请点击帖子正文右下角的“举报”按钮。一般资源发布是有效的,时过境迁因为各种各样的原因,资源有可能失效。如果购买后发现资源失效或者资源和帖子内容描述不符,请到首页 [问题/意见反馈区] 发帖说明原因后申请退币。如“资源失效,申请退币”,管理员核实后会退币给您的。

回复

使用道具 举报

点击按钮快速添加回复内容: 超赞 高兴 激动 给力 收藏 支持 期待 顶帖 精彩 感谢
您需要登录后才可以回帖 登录 | 立即注册

本版积分规则

站长邮箱|sitemap|手机版|小黑屋|百度统计|标签搜索|网盘分享吧

GMT+8, 2022-12-2 14:30 , Processed in 0.235448 second(s), 46 queries .

Powered by Discuz! X3.4

Copyright © 2001-2021, Tencent Cloud.

快速回复 返回顶部 返回列表