网盘分享吧

 找回密码
 立即注册

QQ登录

只需一步,快速开始

查看: 35|回复: 6

[BD-1080P] [2008][电锯惊魂5][美国][恐怖][国英双语][内封中英特效双字][BD-MKV/9.67G][无水印][1080P][HEVC]

[复制链接]

主题
27
积分
1940
热心值
80
金币
672
注册时间
2022-9-28
最后登录
2022-12-2
在线时间
36 小时

活跃会员最佳新人

发表于 2022-11-24 23:22 | 显示全部楼层 |阅读模式

赞助VIP可享受免金币查看特权  点击这里充值金币或者开通VIP 购买前先点击分享链接验证是否有效!
BT资源无法下载:戳这里,如何发布售价资源帖?:戳这里      《避免 分享链接失效 的方法?》


电锯惊魂5.jpg

◎译  名 电锯惊魂5 / 夺魂锯5(台) / 恐惧斗室5人面兽心(港) / 你死我活5 / 链锯惊魂5
◎片  名 Saw V
◎年  代 2008
◎产  地 美国 / 加拿大
◎类  别 悬疑 / 惊悚 / 恐怖
◎语  言 英语
◎上映日期 2008-10-24(美国)
◎片  长 92分钟 / 95分钟(导演剪辑版)
◎导  演 大卫·海克尔 / David Hackl
◎演  员 托宾·贝尔 / Tobin Bell / 饰 竖锯 / 约翰·克莱默 Jigsaw / John Kramer
       科斯塔斯·曼迪勒 / Costas Mandylor / 饰 马克·霍夫曼 Mark Hoffman
       斯科特·帕特森 / Scott Patterson / 饰 斯特拉姆 Agent Strahm
       贝茜·拉塞尔 / Betsy Russell / 饰 吉尔 Jill
       朱莉·本茨 / Julie Benz / 饰 布丽特 Brit
       梅根·古德 / Meagan Good / 饰 露芭 Luba
       马克·罗斯顿 / Mark Rolston / 饰 丹·埃里克森 Dan Erickson
       卡尔洛·罗塔 / Carlo Rota / 饰 查尔斯 Charles
       格雷格·布瑞克 / Greg Bryk / 饰 马利克 Mallick
       劳拉·戈登 / Laura Gordon / 饰 艾希礼 Ashley
       乔利斯·贾斯基 / Joris Jarsky / 饰 塞思 Seth
       迈克·巴特斯 / Mike Butters / 饰 保罗 Paul
       阿尔·萨皮恩扎 / Al Sapienza / 饰 警察局长 Chief of Police
       迈克·瑞巴 / Mike Realba / 饰 菲斯克 Detective Fisk
       杰夫·普斯蒂尔 / Jeff Pustil / 饰 伯尼 Bernie
       丽莎·贝瑞 / Lisa Berry / 饰 EMT
       希拉·沙赫 / Sheila Shah / 饰 Special Agent Cowan
       布兰登·麦吉本 / Brandon McGibbon / 饰 Hank
◎编  剧 帕特里克·梅尔顿 / Patrick Melton
       马库斯·邓斯坦 / Marcus Dunstan
◎制  片  人 温子仁 / James Wan
       雷·沃纳尔 / Leigh Whannell
◎音  乐 查理·克劳泽 / Charlie Clouser
◎摄  影 大卫·A·阿姆斯特朗 / David A. Armstrong
◎剪  辑 凯文·格劳特 / Kevin Greutert
◎美  术 Elis Lam Elis Lam
◎化  妆 Sean Sansom Sean Sansom
       斯蒂芬妮·英格拉姆 / Stephanie Ingram
◎视觉特效 Peter Denomme Peter Denomme
       谷德伦·海因茨 / Gudrun Heinze

◎简  介 

  饱受癌症折磨,“竖锯”约翰·克莱默(Tobin Bell 饰)油尽灯灭。然而他所创造的“拼图杀人案”却并未就此停止,反而愈演愈烈。警官马克·霍夫曼(Costas Mandylor 饰)曾假借“竖锯”之名向残害他家人的凶手复仇,但他很快成为约翰的猎物。经过一波三折,霍夫曼成为“拼图杀人案”的接班人,只是约翰警世救人的初衷被彻底抛却,取而代之的无休止的血腥杀戮。一场毫无胜算的五人逃生游戏在霍夫曼德主持下展开。
  另一方面,霍夫曼千方百计隐瞒身份,而警官皮特·斯特拉姆(Scott Patterson 饰)却对其产生怀疑。斯特拉姆千方百计寻找证据,却不曾想已走入霍夫曼布下的残酷迷局……

◎台词金句

  Jigsaw: Hello Seth, I want to play a game。 Right now, you are feeling helpless。 This is the same helplessness you bestowed onto others。 But now, it's unto you。坚锯:你好,赛斯。我想来玩个游戏。你感到很无助。这与你带给其他人的无助相同。现在轮到你了。
  Jigsaw: In thirty seconds, the pendulum will drop far enough to touch your body。 Within sixty seconds, it will cut you in half。 To avoid the pendulum, all you have to do is destroy the things that have killed… your hands。 竖锯:30秒后钟摆将降低到能接触到你身体的高度。之后用60秒就能把你切成两半。若要避开钟摆你所需要做的事只有一件,毁掉你用来杀人的……那双手。

◎幕后揭秘

  【第五次与“竖锯”的约会】

  一年一度的“坚锯”,一年一度的极限状态下的生存体现,一年一度大银幕上的血肉模糊……自从2004年万圣节开始,这部狮门新的恐怖电影系列,便已经成为每年固定时间、固定观众的惯例出演。也许谁都没有想到,当初这样一部低成本的恐怖电影,会发展如今像狮门一样所宣称的“不到十集绝不罢休”。

  《电锯惊魂》系列一向以扣人心弦的剧本所被称道,本次的编剧仍然是《电锯惊魂4》的帕特里克·梅尔顿和马库斯·邓斯坦,两人同时也是另一恐怖系列电影《兽餐》及《兽餐2》的编剧。《电锯惊魂4》的第二组副导演大卫·海克尔则担当第五集的导演。对于这次首次担任总导演,大卫·海克尔的信心满满,他表示:“有前面四集的成功经验,再加上原班人马的班底,我有信心将《电锯惊魂5》打造成最好的一部!”

  自从第一集以密室生存与杀戮作为噱头之后,随后的几集都在第一集的基础上进一步延伸其剧情,于是关于“坚锯”老者的背景、杀人的深层动机等等逐一呈现,而杀人狂的新信奉者、警察的侦破过程等等新加入的元素也使得续集的内容更加丰富。当然,最核心的故事,依然是那些从睡梦中醒来茫然不知,却要面对恐怕是人生中最残酷的一次考验的实验者们……在这一集内,导演大卫·海克尔表示:“以往4集中留下的诸多疑点将会在本集内逐步揭开。比如在第四集的导演剪辑版DVD中出现的玻璃柜杀人游戏,Billy娃娃与三轮车究竟有何渊源?种种在前面四集里留下的疑问,在第五集内观众都会得到解答。” 导演大卫·海克尔还表示第5集中的杀人游戏是史上最难、最危险且又最优雅、最朴素的。

  同时,对于上一集内留下的一个大悬念,本片编剧帕特里克·梅尔顿在接受访问也透露了一些内容:“莲恩·德伦及杰夫·瑞恩哈特的女儿克贝蒂到底有没有摆脱险境?这也是第五集内一个彻底揭露谜底的故事点……我相信观众一定会感到不可思议的!”

  【杀人器具的灵感来源】

  对于《电锯惊魂》系列,观众最过目难忘的大概就是电影中出现的种类繁多,令人眼花缭乱兼心惊肉跳的杀人机器了。而这些杀人器具,究竟是怎么出现在主创者脑海里的呢?这也是看完整个系列观众的最大疑问。为前4部《电锯惊魂》担任美术设计的大卫哈克尔,描述了《电锯惊魂5》中杀人器具的灵感来源:“几年前,我的小儿子辛画了一些不可思议的画,我随即借用在了《电锯惊魂2》和《电锯惊魂3》的游戏设计当中。今年,我再一次从辛的‘作品’中找到了灵感。呵呵,有时真得承认,一个9岁儿童照样能吓到你。”

  而导演大卫·海克尔也补充了《电锯惊魂》系列中杀人器具的构思过程:“哈克尔提供了不少点子,而导演、编剧甚至整个摄制组,几乎不分日夜都在找有趣的杀人方式,不管是谁,想到好点子之后都会立刻打电话告诉大家……必须要说明的是,我们都是正常人,而我们提供的杀人方式的确是存在危险的,请各位观众切勿模仿。”

  【结局与续集】

  第五集开拍完毕之后,演员在接受访问时曾经爆料,其实导演拍摄了几个不同版本的结局。而当记者将此事求证《电锯惊魂》系列的制片人马克·伯格时,马克倒也爽快地说:“是的,确实是拍摄了几个结局,最后我和导演都认为其中三个都很不错……但毕竟电影只能有一种结局,所以我们最后还是痛苦地做出了取舍。”而当记者进一步问到是否能在DVD中欣赏到其他结局之时,马克·伯格倒是打起了马虎眼:“不一定,目前我们对DVD的制作没有任何计划。”

  《电锯惊魂5》尚未拍摄完毕之时,大卫·海克尔就兴奋地公布了第六部的拍摄计划。他说:“我为第五集留了一个相当精彩的悬念,这必须要有第六集去解答。而第六集的导演将会是凯文·格劳特。”凯文·格劳特一直担任《电锯惊魂》系列的剪辑,因此第六集仍然可以看作是自家班底的再一次年度作业。

◎传  送  门 

[2004][电锯惊魂][美国][恐怖][国英双语][内封中英特效双字][BD-MKV/14.8G][无水印][4K][HDR][HEVC]

[2005][电锯惊魂2][美国][恐怖][国英双语][内封中英特效双字][BD-MKV/10.4G][无水印][1080P][HEVC]

[2006][电锯惊魂3][美国][恐怖][国英双语][内封中英特效双字][BD-MKV/9.26G][无水印][1080P][HEVC]

[2007][电锯惊魂4][美国][恐怖][国英双语][内封中英特效双字][BD-MKV/10.3G][无水印][1080P][HEVC]

[2008][电锯惊魂5][美国][恐怖][国英双语][内封中英特效双字][BD-MKV/9.67G][无水印][1080P][HEVC]

[2009][电锯惊魂6][美国][恐怖][内封英语中英特效双字][BD-MKV/9.15G][无水印][1080P][HEVC]

[2010][电锯惊魂7][美国][恐怖][内封英语中英特效双字][BD-MKV/8.34G][无水印][1080P][HEVC]

[2017][电锯惊魂8:竖锯][美国][恐怖][内封英语中英特效双字][BD-MKV/18G][无水印][4K][HDR][HEVC]

[2021][电锯惊魂9:漩涡][美国][恐怖][内封英语中英特效双字][BD-MKV/20.5G][无水印][4K][HDR][HEVC]

◎温馨提醒 为防资源和谐,请勿在线观看!

电锯惊魂5.2008.BD1080P.HEVC.国英双语.内封中英特效双字.mkv_000607.922.jpg

电锯惊魂5.2008.BD1080P.HEVC.国英双语.内封中英特效双字.mkv_001348.620.jpg

电锯惊魂5.2008.BD1080P.HEVC.国英双语.内封中英特效双字.mkv_004747.445.jpg

电锯惊魂5.2008.BD1080P.HEVC.国英双语.内封中英特效双字.mkv_011414.985.jpg

电锯惊魂5.2008.BD1080P.HEVC.国英双语.内封中英特效双字.mkv_012956.362.jpg

电锯惊魂5.2008.BD1080P.HEVC.国英双语.内封中英特效双字.jpg

  1. General
  2. Complete name                  : 电锯惊魂5.2008.BD1080P.HEVC.国英双语.内封中英特效双字.mkv
  3. Format                         : Matroska
  4. Format version                 : Version 4
  5. File size                      : 9.68 GiB
  6. Duration                       : 1 h 35 min
  7. Overall bit rate mode          : Variable
  8. Overall bit rate               : 14.6 Mb/s
  9. Encoded date                   : UTC 2021-10-26 04:18:27
  10. Writing application            : mkvmerge v60.0.0 ('Are We Copies?') 64-bit
  11. Writing library                : libebml v1.4.2 + libmatroska v1.6.4

  12. Video
  13. ID                             : 1
  14. Format                         : HEVC
  15. Format/Info                    : High Efficiency Video Coding
  16. Format profile                 : Main 10@L5.1@High
  17. Codec ID                       : V_MPEGH/ISO/HEVC
  18. Duration                       : 1 h 35 min
  19. Bit rate                       : 9 047 kb/s
  20. Width                          : 1 920 pixels
  21. Height                         : 1 080 pixels
  22. Display aspect ratio           : 16:9
  23. Frame rate mode                : Constant
  24. Frame rate                     : 23.976 (24000/1001) FPS
  25. Color space                    : YUV
  26. Chroma subsampling             : 4:2:0
  27. Bit depth                      : 10 bits
  28. Bits/(Pixel*Frame)             : 0.182
  29. Stream size                    : 6.01 GiB (62%)
  30. Title                          : HEVC, x265Main10@L5.1@High, 24/1.001 fps @ 9046 kbps
  31. Writing library                : x265 3.3+1-g396395b2b:[Windows][GCC 9.2.0][64 bit] 10bit
  32. Language                       : English
  33. Default                        : Yes
  34. Forced                         : No
  35. Color range                    : Limited
  36. Color primaries                : BT.709
  37. Transfer characteristics       : BT.709
  38. Matrix coefficients            : BT.709

  39. Audio #1
  40. ID                             : 2
  41. Format                         : DTS XLL
  42. Format/Info                    : Digital Theater Systems
  43. Commercial name                : DTS-HD Master Audio
  44. Codec ID                       : A_DTS
  45. Duration                       : 1 h 35 min
  46. Bit rate mode                  : Variable
  47. Bit rate                       : 5 050 kb/s
  48. Channel(s)                     : 8 channels
  49. Channel layout                 : C L R LFE Lb Rb Lss Rss
  50. Sampling rate                  : 48.0 kHz
  51. Frame rate                     : 93.750 FPS (512 SPF)
  52. Bit depth                      : 24 bits
  53. Compression mode               : Lossless
  54. Stream size                    : 3.35 GiB (35%)
  55. Title                          : 原声英语
  56. Language                       : English
  57. Default                        : Yes
  58. Forced                         : No

  59. Audio #2
  60. ID                             : 3
  61. Format                         : AC-3
  62. Format/Info                    : Audio Coding 3
  63. Commercial name                : Dolby Digital
  64. Codec ID                       : A_AC3
  65. Duration                       : 1 h 35 min
  66. Bit rate mode                  : Constant
  67. Bit rate                       : 320 kb/s
  68. Channel(s)                     : 2 channels
  69. Channel layout                 : L R
  70. Sampling rate                  : 48.0 kHz
  71. Frame rate                     : 31.250 FPS (1536 SPF)
  72. Compression mode               : Lossy
  73. Stream size                    : 218 MiB (2%)
  74. Title                          : 国语配音
  75. Language                       : Chinese
  76. Service kind                   : Complete Main
  77. Default                        : No
  78. Forced                         : No

  79. Text #1
  80. ID                             : 4
  81. Format                         : PGS
  82. Muxing mode                    : zlib
  83. Codec ID                       : S_HDMV/PGS
  84. Codec ID/Info                  : Picture based subtitle format used on BDs/HD-DVDs
  85. Duration                       : 1 h 31 min
  86. Bit rate                       : 171 kb/s
  87. Frame rate                     : 1.190 FPS
  88. Count of elements              : 6547
  89. Stream size                    : 112 MiB (1%)
  90. Title                          : 中英特效字幕. By.开心兔
  91. Language                       : Chinese
  92. Default                        : Yes
  93. Forced                         : No

  94. Text #2
  95. ID                             : 5
  96. Format                         : PGS
  97. Muxing mode                    : zlib
  98. Codec ID                       : S_HDMV/PGS
  99. Codec ID/Info                  : Picture based subtitle format used on BDs/HD-DVDs
  100. Duration                       : 1 h 31 min
  101. Bit rate                       : 152 kb/s
  102. Frame rate                     : 1.190 FPS
  103. Count of elements              : 6547
  104. Stream size                    : 99.5 MiB (1%)
  105. Title                          : 简中特效字幕. By.开心兔
  106. Language                       : Chinese
  107. Default                        : No
  108. Forced                         : No
复制代码

链接:https://www.aliyundrive.com/s/8u8mgUcdafN
购买主题 本主题需向作者支付 12 金币 才能浏览
楼主热帖
人生得意须尽欢,莫使金樽空对月。

主题
27
积分
1940
热心值
80
金币
672
注册时间
2022-9-28
最后登录
2022-12-2
在线时间
36 小时

活跃会员最佳新人

 楼主| 发表于 2022-11-26 12:18 | 显示全部楼层
我来顶顶顶...贴来了└(^o^)┘。
人生得意须尽欢,莫使金樽空对月。
回复

使用道具 举报

主题
0
积分
3171
热心值
128
金币
289
注册时间
2022-3-21
最后登录
2022-12-2
在线时间
91 小时
发表于 2022-11-25 09:00 | 显示全部楼层
感谢楼主分享好资源,收藏了~

① www.wpfx8.com 欢迎您分享自己的网盘资源!分享越多,金币越多!资源互利共享,我为人人,人人为我!
② 每个人都可以在本站发布资源帖,同时本站所有资源都需要金币才能下载!但是,只要你发布几十个优秀资源帖,基本上,你就会源源不断地获得金币了!
③ 如果发现违规广告资源,请点击帖子正文右下角的“举报”按钮。一般资源发布是有效的,时过境迁因为各种各样的原因,资源有可能失效。如果购买后发现资源失效或者资源和帖子内容描述不符,请到首页 [问题/意见反馈区] 发帖说明原因后申请退币。如“资源失效,申请退币”,管理员核实后会退币给您的。

回复

使用道具 举报

主题
0
积分
2573
热心值
99
金币
84
注册时间
2022-6-21
最后登录
2022-12-2
在线时间
47 小时
发表于 2022-11-25 08:30 | 显示全部楼层
谢谢分享!!!!!!

① www.wpfx8.com 欢迎您分享自己的网盘资源!分享越多,金币越多!资源互利共享,我为人人,人人为我!
② 每个人都可以在本站发布资源帖,同时本站所有资源都需要金币才能下载!但是,只要你发布几十个优秀资源帖,基本上,你就会源源不断地获得金币了!
③ 如果发现违规广告资源,请点击帖子正文右下角的“举报”按钮。一般资源发布是有效的,时过境迁因为各种各样的原因,资源有可能失效。如果购买后发现资源失效或者资源和帖子内容描述不符,请到首页 [问题/意见反馈区] 发帖说明原因后申请退币。如“资源失效,申请退币”,管理员核实后会退币给您的。

回复

使用道具 举报

主题
4
积分
6401
热心值
171
金币
302
注册时间
2022-3-29
最后登录
2022-12-2
在线时间
97 小时

最佳新人活跃会员

发表于 2022-11-25 07:48 | 显示全部楼层
楼主太给力了,这个资源找了很久,果断下载欣赏……

① www.wpfx8.com 欢迎您分享自己的网盘资源!分享越多,金币越多!资源互利共享,我为人人,人人为我!
② 每个人都可以在本站发布资源帖,同时本站所有资源都需要金币才能下载!但是,只要你发布几十个优秀资源帖,基本上,你就会源源不断地获得金币了!
③ 如果发现违规广告资源,请点击帖子正文右下角的“举报”按钮。一般资源发布是有效的,时过境迁因为各种各样的原因,资源有可能失效。如果购买后发现资源失效或者资源和帖子内容描述不符,请到首页 [问题/意见反馈区] 发帖说明原因后申请退币。如“资源失效,申请退币”,管理员核实后会退币给您的。

回复

使用道具 举报

主题
22
积分
3585
热心值
124
金币
245
注册时间
2022-5-29
最后登录
2022-12-2
在线时间
180 小时

最佳新人活跃会员灌水之王

发表于 2022-11-25 06:05 | 显示全部楼层
楼主太给力了,这个资源找了很久,果断下载欣赏……

① www.wpfx8.com 欢迎您分享自己的网盘资源!分享越多,金币越多!资源互利共享,我为人人,人人为我!
② 每个人都可以在本站发布资源帖,同时本站所有资源都需要金币才能下载!但是,只要你发布几十个优秀资源帖,基本上,你就会源源不断地获得金币了!
③ 如果发现违规广告资源,请点击帖子正文右下角的“举报”按钮。一般资源发布是有效的,时过境迁因为各种各样的原因,资源有可能失效。如果购买后发现资源失效或者资源和帖子内容描述不符,请到首页 [问题/意见反馈区] 发帖说明原因后申请退币。如“资源失效,申请退币”,管理员核实后会退币给您的。

回复

使用道具 举报

主题
2
积分
5622
热心值
161
金币
329
注册时间
2022-5-3
最后登录
2022-12-2
在线时间
153 小时

最佳新人活跃会员

发表于 2022-11-25 01:45 | 显示全部楼层
楼主加油,希望有更好的网盘资源为大家分享,非常感谢!
世事洞明皆学问,人情练达即文章。
回复

使用道具 举报

点击按钮快速添加回复内容: 超赞 高兴 激动 给力 收藏 支持 期待 顶帖 精彩 感谢
您需要登录后才可以回帖 登录 | 立即注册

本版积分规则

站长邮箱|sitemap|手机版|小黑屋|百度统计|标签搜索|网盘分享吧

GMT+8, 2022-12-2 13:37 , Processed in 0.243162 second(s), 46 queries .

Powered by Discuz! X3.4

Copyright © 2001-2021, Tencent Cloud.

快速回复 返回顶部 返回列表