网盘分享吧

 找回密码
 立即注册

QQ登录

只需一步,快速开始

查看: 125|回复: 23

[BD-1080P] [2016][神探夏洛克:可恶的新娘+圣诞特别篇][英国][本尼迪克特·康伯巴奇/马丁·弗瑞曼][内封中英特效双字][BD-MKV/2.86G][无水印][1080P][HEVC]

[复制链接]

主题
27
积分
1847
热心值
80
金币
656
注册时间
2022-9-28
最后登录
2022-11-28
在线时间
35 小时

活跃会员最佳新人

发表于 2022-11-4 19:13 | 显示全部楼层 |阅读模式

赞助VIP可享受免金币查看特权  点击这里充值金币或者开通VIP 购买前先点击分享链接验证是否有效!
BT资源无法下载:戳这里,如何发布售价资源帖?:戳这里      《避免 分享链接失效 的方法?》


神探夏洛克:福至如归.jpg

◎译  名 神探夏洛克:福至如归 / 神探夏洛克圣诞迷你集 / 神探夏洛克圣诞特别篇 / Sherlock: Many Happy Returns
◎片  名 Sherlock Mini Episode - Many Happy Returns
◎年  代 2013
◎产  地 英国
◎类  别 剧情 / 悬疑 / 惊悚 / 犯罪
◎语  言 英语
◎上映日期 2013-12-24(英国)
◎片  长 7分钟
◎演  员 本尼迪克特·康伯巴奇 / Benedict Cumberbatch / 饰 Sherlock Holmes
       马丁·弗瑞曼 / Martin Freeman / 饰 Dr. John Watson
       鲁珀特·格雷夫斯 / Rupert Graves / 饰 雷斯垂德
       露易丝·布瑞丽 / Louise Brealey / 饰 Molly Hooper
       乔纳森·阿里斯 / Jonathan Aris / 饰 Anderson
       马克·加蒂斯 / Mark Gatiss
◎编  剧 马克·加蒂斯 / Mark Gatiss
       史蒂文·莫法特 / Steven Moffat

◎简  介 

  苦等近两年后,“神夏”迷终于迎来福利。12月3日,BBC一台证实,25日圣诞节当天,本尼迪克特·康伯巴奇(Benedict Cumberbatch)与马丁·弗里曼(Martin Freeman)主演的热播英剧《神探夏洛克》(Sherlock)将推出节日迷你特集《幸福回归》(Many Happy Returns),届时剧粉可以通过BBC的互动电视服务Red Button和网络收看,而美国播出方PBS电视台还没有任何该集在本国的上映消息。
  《幸福回归》的剧情介绍说,“夏洛克离开已经两年了,但仍有人不确定他真的去世了。”谁是那个心存怀疑的人?也许是华生,他仍然不愿接受好友的悲剧结局,还在苦苦追寻夏洛克生还的线索。也许是麦克洛夫特,有着深厚政府背景的他,接受了弟弟的暗示。也许是“那个女人”艾琳·艾德勒,她不相信夏洛克这么容易被打败。不论这个人是谁,他猜的没错:夏洛克的确还活着。
  照此看来,《幸福回归》将作为第三季《神探夏洛克》开播前的序曲,至于康伯巴奇和弗里曼是否会在剧中亮相,尚不得而知,希望他们至少会客串一下。《神探夏洛克》第三季将于1月1日在英国首播,在美国的开播日期为1月19日。

神探夏洛克:可恶的新娘.jpg

◎译  名 神探夏洛克:可恶的新娘 / 新世纪福尔摩斯:地狱新娘(台) / 新福尔摩斯(港)
◎片  名 Sherlock: The Abominable Bride
◎年  代 2016
◎产  地 英国
◎类  别 剧情 / 悬疑 / 犯罪
◎语  言 英语
◎上映日期 2016-01-01(英国/美国) / 2016-01-04(中国大陆)
◎片  长 90分钟 / 115分钟(中国大陆)
◎导  演 道格拉斯·麦金农 / Douglas Mackinnon
◎演  员 本尼迪克特·康伯巴奇 / Benedict Cumberbatch / 饰 Sherlock Holmes
       马丁·弗瑞曼 / Martin Freeman / 饰 Dr. John Watson
       鲁珀特·格雷夫斯 / Rupert Graves / 饰 Inspector Lestrade
       马克·加蒂斯 / Mark Gatiss / 饰 Mycroft Holmes
       安德鲁·斯科特 / Andrew Scott / 饰 Professor Moriarty
       尤娜·斯塔布斯 / Una Stubbs / 饰 Mrs. Hudson
       露易丝·布瑞丽 / Louise Brealey / 饰 Hooper
       阿曼达·阿宾顿 / Amanda Abbington / 饰 Mary Watson
       乔纳森·阿里斯 / Jonathan Aris / 饰 Anderson
       亚斯明·阿克拉姆 / Yasmine Akram / 饰 Janine Donlevy
       大卫·内尔斯特 / David Nellist / 饰 Stamford
       凯瑟琳·麦克马克 / Catherine McCormack / 饰 Lady Carmichael
       蒂姆·麦克纳尼 / Tim McInnerny / 饰 Sir Eustace Carmichael
       娜塔莎·奥基弗 / Natasha O'Keeffe / 饰 Emelia Ricoletti
       蒂姆·巴洛 / Tim Barlow
       杰拉尔德·基德 / Gerald Kyd / 饰 Thomas Ricoletti
       丹尼尔·弗恩 / Daniel Fearn
       斯蒂芬妮·海姆 / Stephanie Hyam
       亚当·格里夫斯-尼尔 / Adam Greaves-Neal
       理查德·萨顿 / Richard Sutton / 饰 Diamond
       安东尼奥·巴斯托夫 / Antonio Bustorff / 饰 Young Running Man
◎编  剧 马克·加蒂斯 / Mark Gatiss
       史蒂文·莫法特 / Steven Moffat
       阿瑟·柯南·道尔 / Arthur Conan Doyle
◎音  乐 大卫·阿诺德 / David Arnold
       Michael Price Michael Price
◎服  装 萨拉·阿瑟 / Sarah Arthur

◎简  介 

  《神探夏洛克》(Sherlock)2016年推出特别篇,福尔摩斯回归原著维多利亚时代,调查一宗神秘的幽灵新娘谋杀案。Thomas Ricoletti惊讶地发现,几小时前自杀身亡的妻子Emelia Ricoletti身着旧婚纱再次出现了,她的幽灵带着强烈的复仇欲望在街上徘徊。从迷雾笼罩的莱姆豪斯到被废弃的教堂深处,福尔摩斯、华生以及他们的朋友不得不想尽办法对付这个“从坟墓里爬出来”的敌人,但最终的真相却出乎所有人的意料……

◎传  送  门 

[神探夏洛克第一季+导航集][4集全][2010][百度网盘][本尼迪克特·康伯巴奇/马丁·弗瑞曼][BD-MKV/11.7G][内封中英特效双字][无水印][1080P][HEVC]

[神探夏洛克第二季][3集全][2012][百度网盘][本尼迪克特·康伯巴奇/马丁·弗瑞曼][BD-MKV/8.73G][内封中英特效双字][无水印][1080P][HEVC]

[神探夏洛克第三季][3集全][2014][百度网盘][本尼迪克特·康伯巴奇/马丁·弗瑞曼][BD-MKV/10.7G][内封中英特效双字][无水印][1080P][HEVC]

[神探夏洛克第四季][3集全][2017][百度网盘][本尼迪克特·康伯巴奇/马丁·弗瑞曼][BD-MKV/7.42G][内封中英特效双字][无水印][1080P][HEVC]

[2016][神探夏洛克:可恶的新娘+圣诞特别篇][英国][本尼迪克特·康伯巴奇/马丁·弗瑞曼][内封中英特效双字][BD-MKV/2.86G][无水印][1080P][HEVC]

◎温馨提醒 为防资源和谐,请下载后观看!

神探夏洛克:可恶的新娘.2016.BD1080P.HEVC.内封中英特效双字.mkv_000529.153.jpg

神探夏洛克:可恶的新娘.2016.BD1080P.HEVC.内封中英特效双字.mkv_001136.083.jpg

神探夏洛克:可恶的新娘.2016.BD1080P.HEVC.内封中英特效双字.mkv_001517.232.jpg

神探夏洛克:可恶的新娘.2016.BD1080P.HEVC.内封中英特效双字.mkv_003128.156.jpg

神探夏洛克:可恶的新娘.2016.BD1080P.HEVC.内封中英特效双字.mkv_013218.809.jpg

神探夏洛克:可恶的新娘.2016.BD1080P.HEVC.内封英语中英特效双字.jpg

  1. General
  2. Complete name                  : 神探夏洛克:可恶的新娘.2016.BD1080P.HEVC.内封英语中英特效双字.mkv
  3. Format                         : Matroska
  4. Format version                 : Version 4
  5. File size                      : 2.86 GiB
  6. Duration                       : 1 h 33 min
  7. Overall bit rate               : 4 405 kb/s
  8. Encoded date                   : UTC 2020-07-29 15:56:43
  9. Writing application            : mkvmerge v7.9.0 ('Birds') 32bit
  10. Writing library                : libebml v1.3.1 + libmatroska v1.4.2

  11. Video
  12. ID                             : 1
  13. Format                         : HEVC
  14. Format/Info                    : High Efficiency Video Coding
  15. Format profile                 : Main 10@L4@Main
  16. Codec ID                       : V_MPEGH/ISO/HEVC
  17. Duration                       : 1 h 33 min
  18. Bit rate                       : 3 696 kb/s
  19. Width                          : 1 920 pixels
  20. Height                         : 1 040 pixels
  21. Display aspect ratio           : 1.85:1
  22. Frame rate mode                : Constant
  23. Frame rate                     : 24.000 FPS
  24. Color space                    : YUV
  25. Chroma subsampling             : 4:2:0
  26. Bit depth                      : 10 bits
  27. Bits/(Pixel*Frame)             : 0.077
  28. Stream size                    : 2.40 GiB (84%)
  29. Writing library                : x265 2.9+34-17120cfb5c99:[Windows][GCC 8.2.0][64 bit] 10bit
  30. Default                        : Yes
  31. Forced                         : No

  32. Audio
  33. ID                             : 2
  34. Format                         : AC-3
  35. Format/Info                    : Audio Coding 3
  36. Commercial name                : Dolby Digital
  37. Codec ID                       : A_AC3
  38. Duration                       : 1 h 33 min
  39. Bit rate mode                  : Constant
  40. Bit rate                       : 640 kb/s
  41. Channel(s)                     : 6 channels
  42. Channel layout                 : L R C LFE Ls Rs
  43. Sampling rate                  : 48.0 kHz
  44. Frame rate                     : 31.250 FPS (1536 SPF)
  45. Compression mode               : Lossy
  46. Stream size                    : 426 MiB (15%)
  47. Title                          : English-DD5.1£cXcY
  48. Language                       : English
  49. Service kind                   : Complete Main
  50. Default                        : Yes
  51. Forced                         : No

  52. Text #1
  53. ID                             : 3
  54. Format                         : PGS
  55. Muxing mode                    : zlib
  56. Codec ID                       : S_HDMV/PGS
  57. Codec ID/Info                  : Picture based subtitle format used on BDs/HD-DVDs
  58. Duration                       : 1 h 32 min
  59. Bit rate                       : 66.5 kb/s
  60. Frame rate                     : 0.842 FPS
  61. Count of elements              : 4691
  62. Stream size                    : 44.2 MiB (2%)
  63. Title                          : 中上英下-SUP_YYeTs字幕£cXcY
  64. Language                       : Chinese
  65. Default                        : Yes
  66. Forced                         : No

  67. Text #2
  68. ID                             : 4
  69. Format                         : ASS
  70. Codec ID                       : S_TEXT/ASS
  71. Codec ID/Info                  : Advanced Sub Station Alpha
  72. Duration                       : 1 h 32 min
  73. Bit rate                       : 135 b/s
  74. Frame rate                     : 0.260 FPS
  75. Count of elements              : 1451
  76. Compression mode               : Lossless
  77. Stream size                    : 92.1 KiB (0%)
  78. Title                          : 简体中文-ASS_NF官方字幕£cXcY
  79. Language                       : Chinese
  80. Default                        : No
  81. Forced                         : No

  82. Text #3
  83. ID                             : 5
  84. Format                         : UTF-8
  85. Codec ID                       : S_TEXT/UTF8
  86. Codec ID/Info                  : UTF-8 Plain Text
  87. Duration                       : 1 h 32 min
  88. Bit rate                       : 69 b/s
  89. Frame rate                     : 0.260 FPS
  90. Count of elements              : 1451
  91. Stream size                    : 47.4 KiB (0%)
  92. Title                          : 简体中文-SRT_NF官方字幕£cXcY
  93. Language                       : Chinese
  94. Default                        : No
  95. Forced                         : No

  96. Text #4
  97. ID                             : 6
  98. Format                         : ASS
  99. Codec ID                       : S_TEXT/ASS
  100. Codec ID/Info                  : Advanced Sub Station Alpha
  101. Duration                       : 1 h 32 min
  102. Bit rate                       : 125 b/s
  103. Frame rate                     : 0.268 FPS
  104. Count of elements              : 1494
  105. Compression mode               : Lossless
  106. Stream size                    : 85.7 KiB (0%)
  107. Title                          : 简体中文-ASS_R3官方字幕£cXcY
  108. Language                       : Chinese
  109. Default                        : No
  110. Forced                         : No
复制代码

链接1:https://pan.baidu.com/s/1F-r12nITsOxExPPojazLKw
链接2:https://pan.baidu.com/s/1ZM4wiQCaWms23ctVL43ltw
购买主题 已有 4 人购买  本主题需向作者支付 12 金币 才能浏览
楼主热帖
人生得意须尽欢,莫使金樽空对月。

主题
0
积分
117
热心值
0
金币
190
注册时间
2022-4-5
最后登录
2022-11-27
在线时间
33 小时
发表于 2022-11-25 20:17 | 显示全部楼层
《网盘分享吧》百度云资源就是多,终于找到了,超开心!

① www.wpfx8.com 欢迎您分享自己的网盘资源!分享越多,金币越多!资源互利共享,我为人人,人人为我!
② 每个人都可以在本站发布资源帖,同时本站所有资源都需要金币才能下载!但是,只要你发布几十个优秀资源帖,基本上,你就会源源不断地获得金币了!
③ 如果发现违规广告资源,请点击帖子正文右下角的“举报”按钮。一般资源发布是有效的,时过境迁因为各种各样的原因,资源有可能失效。如果购买后发现资源失效或者资源和帖子内容描述不符,请到首页 [问题/意见反馈区] 发帖说明原因后申请退币。如“资源失效,申请退币”,管理员核实后会退币给您的。

回复

使用道具 举报

主题
27
积分
1847
热心值
80
金币
656
注册时间
2022-9-28
最后登录
2022-11-28
在线时间
35 小时

活跃会员最佳新人

 楼主| 发表于 2022-11-25 12:18 | 显示全部楼层
我来顶顶顶...贴来了└(^o^)┘。
人生得意须尽欢,莫使金樽空对月。
回复

使用道具 举报

主题
0
积分
125
热心值
0
金币
7
注册时间
2021-2-19
最后登录
2022-11-26
在线时间
26 小时
发表于 2022-11-25 10:02 | 显示全部楼层
我来顶顶顶...贴来了└(^o^)┘。

① www.wpfx8.com 欢迎您分享自己的网盘资源!分享越多,金币越多!资源互利共享,我为人人,人人为我!
② 每个人都可以在本站发布资源帖,同时本站所有资源都需要金币才能下载!但是,只要你发布几十个优秀资源帖,基本上,你就会源源不断地获得金币了!
③ 如果发现违规广告资源,请点击帖子正文右下角的“举报”按钮。一般资源发布是有效的,时过境迁因为各种各样的原因,资源有可能失效。如果购买后发现资源失效或者资源和帖子内容描述不符,请到首页 [问题/意见反馈区] 发帖说明原因后申请退币。如“资源失效,申请退币”,管理员核实后会退币给您的。

回复

使用道具 举报

主题
27
积分
1847
热心值
80
金币
656
注册时间
2022-9-28
最后登录
2022-11-28
在线时间
35 小时

活跃会员最佳新人

 楼主| 发表于 2022-11-24 12:20 | 显示全部楼层
我来顶顶顶...贴来了└(^o^)┘。
人生得意须尽欢,莫使金樽空对月。
回复

使用道具 举报

主题
27
积分
1847
热心值
80
金币
656
注册时间
2022-9-28
最后登录
2022-11-28
在线时间
35 小时

活跃会员最佳新人

 楼主| 发表于 2022-11-18 11:14 | 显示全部楼层
我来顶顶顶...贴来了└(^o^)┘。
人生得意须尽欢,莫使金樽空对月。
回复

使用道具 举报

主题
27
积分
1847
热心值
80
金币
656
注册时间
2022-9-28
最后登录
2022-11-28
在线时间
35 小时

活跃会员最佳新人

 楼主| 发表于 2022-11-16 11:42 | 显示全部楼层
这个刚刚看过,精彩!感谢楼主,收藏了!
人生得意须尽欢,莫使金樽空对月。
回复

使用道具 举报

主题
27
积分
1847
热心值
80
金币
656
注册时间
2022-9-28
最后登录
2022-11-28
在线时间
35 小时

活跃会员最佳新人

 楼主| 发表于 2022-11-12 13:30 | 显示全部楼层
我来顶顶顶...贴来了└(^o^)┘。
人生得意须尽欢,莫使金樽空对月。
回复

使用道具 举报

主题
27
积分
1847
热心值
80
金币
656
注册时间
2022-9-28
最后登录
2022-11-28
在线时间
35 小时

活跃会员最佳新人

 楼主| 发表于 2022-11-9 12:09 | 显示全部楼层
我来顶顶顶...贴来了└(^o^)┘。
人生得意须尽欢,莫使金樽空对月。
回复

使用道具 举报

主题
1
积分
881
热心值
13
金币
16
注册时间
2022-7-15
最后登录
2022-11-28
在线时间
20 小时

最佳新人

发表于 2022-11-7 21:18 | 显示全部楼层
《网盘分享吧》百度云资源就是多,终于找到了,超开心!

① www.wpfx8.com 欢迎您分享自己的网盘资源!分享越多,金币越多!资源互利共享,我为人人,人人为我!
② 每个人都可以在本站发布资源帖,同时本站所有资源都需要金币才能下载!但是,只要你发布几十个优秀资源帖,基本上,你就会源源不断地获得金币了!
③ 如果发现违规广告资源,请点击帖子正文右下角的“举报”按钮。一般资源发布是有效的,时过境迁因为各种各样的原因,资源有可能失效。如果购买后发现资源失效或者资源和帖子内容描述不符,请到首页 [问题/意见反馈区] 发帖说明原因后申请退币。如“资源失效,申请退币”,管理员核实后会退币给您的。

回复

使用道具 举报

点击按钮快速添加回复内容: 超赞 高兴 激动 给力 收藏 支持 期待 顶帖 精彩 感谢
您需要登录后才可以回帖 登录 | 立即注册

本版积分规则

站长邮箱|sitemap|手机版|小黑屋|百度统计|标签搜索|网盘分享吧

GMT+8, 2022-11-29 08:37 , Processed in 0.255150 second(s), 47 queries .

Powered by Discuz! X3.4

Copyright © 2001-2021, Tencent Cloud.

快速回复 返回顶部 返回列表