网盘分享吧

 找回密码
 立即注册

QQ登录

只需一步,快速开始

查看: 61|回复: 12

[4K] [2017][电锯惊魂8:竖锯][美国][恐怖][内封英语中英特效双字][BD-MKV/18G][无水印][4K][HDR][HEVC]

[复制链接]

主题
27
积分
1847
热心值
80
金币
656
注册时间
2022-9-28
最后登录
2022-11-28
在线时间
35 小时

活跃会员最佳新人

发表于 2022-11-24 23:55 | 显示全部楼层 |阅读模式

赞助VIP可享受免金币查看特权  点击这里充值金币或者开通VIP 购买前先点击分享链接验证是否有效!
BT资源无法下载:戳这里,如何发布售价资源帖?:戳这里      《避免 分享链接失效 的方法?》


电锯惊魂8:竖锯.jpg

◎译  名 电锯惊魂8:竖锯 / 夺魂锯:游戏重启(台) / 恐惧斗室之狂魔再现(港) / 电锯惊魂8 / 电锯惊魂:遗产
◎片  名 Jigsaw
◎年  代 2017
◎产  地 美国 / 加拿大
◎类  别 悬疑 / 惊悚 / 恐怖
◎语  言 英语
◎上映日期 2017-10-27(美国)
◎片  长 92分钟
◎导  演 迈克尔·斯派瑞 / Michael Spierig
       彼得·斯派瑞 / Peter Spierig
◎演  员 马特·帕斯摩尔 / Matt Passmore / 饰 洛根·尼尔森 Logan Nelson
       托宾·贝尔 / Tobin Bell / 饰 竖锯 / 约翰·克莱默 Jigsaw / John Kramer
       考乐姆·吉斯·雷尼 / Callum Keith Rennie / 饰 警探奥尔兰 Detective Halloran
       汉娜·艾米莉·安德森 / Hannah Emily Anderson / 饰 埃莉诺·博纳维尔 Eleanor Bonneville
       克雷·班奈特 / Clé Bennett / 饰 警探基思·亨特 Detective Keith Hunt
       劳拉·范德沃特 / Laura Vandervoort / 饰 安娜 Anna
       保罗·布朗斯坦 / Paul Braunstein / 饰 赖安 Ryan
       曼德拉·范·皮布尔斯 / Mandela Van Peebles / 饰 米奇 Mitch
       布列塔尼·艾伦 / Brittany Allen / 饰 卡莉 Carly
       乔赛亚·布莱克 / Josiah Black / 饰 埃德加·曼森 Edgar Munsen
       爱德华·拉特尔 / Edward Ruttle / 饰 马特 Matt
       迈克·布瓦韦尔 / Michael Boisvert / 饰 李·詹姆斯 Lee James
       凯雅·金 / Keeya King / 饰 Rebecca
       比利·帕罗特 / Billy Parrott / 饰 Beat Cop
◎编  剧 皮特·古德芬格 / Pete Goldfinger
       乔什·斯托博格 / Josh Stolberg
◎制  片  人 雷·沃纳尔 / Leigh Whannell
       温子仁 / James Wan
◎音  乐 查理·克劳泽 / Charlie Clouser
◎剪  辑 凯文·格劳特 / Kevin Greutert

◎简  介 

  远离尘嚣的一座封闭谷仓内,安娜(劳拉·范德沃特 Laura Vandervoort 饰)、赖安(保罗·布朗斯坦 Paul Braunstein 饰)、米奇(曼德拉·范·皮布尔斯 Mandela Van Peebles 饰)和卡莉(布列塔尼·艾伦 Brittany Allen 饰)从昏迷中醒来。他们的头部被奇怪的装置束缚,颈上的铁链连接着安装了圆锯的铁门。在竖锯的指示下,他们将经历一场场痛彻骨髓的生死考验,并在死神的屠刀面前低头认罪。
  繁华都市中,以各种方式惨死的尸体接连出现,共同特征全部指向了拼图杀人案的制造者——本该在十年前死去的竖锯约翰·克莱默(托宾·贝尔 Tobin Bell 饰)。竖锯不死,给予背德者以至痛的责罚和审判……

◎传  送  门 

[2004][电锯惊魂][美国][恐怖][国英双语][内封中英特效双字][BD-MKV/14.8G][无水印][4K][HDR][HEVC]

[2005][电锯惊魂2][美国][恐怖][国英双语][内封中英特效双字][BD-MKV/10.4G][无水印][1080P][HEVC]

[2006][电锯惊魂3][美国][恐怖][国英双语][内封中英特效双字][BD-MKV/9.26G][无水印][1080P][HEVC]

[2007][电锯惊魂4][美国][恐怖][国英双语][内封中英特效双字][BD-MKV/10.3G][无水印][1080P][HEVC]

[2008][电锯惊魂5][美国][恐怖][国英双语][内封中英特效双字][BD-MKV/9.67G][无水印][1080P][HEVC]

[2009][电锯惊魂6][美国][恐怖][内封英语中英特效双字][BD-MKV/9.15G][无水印][1080P][HEVC]

[2010][电锯惊魂7][美国][恐怖][内封英语中英特效双字][BD-MKV/8.34G][无水印][1080P][HEVC]

[2017][电锯惊魂8:竖锯][美国][恐怖][内封英语中英特效双字][BD-MKV/18G][无水印][4K][HDR][HEVC]

[2021][电锯惊魂9:漩涡][美国][恐怖][内封英语中英特效双字][BD-MKV/20.5G][无水印][4K][HDR][HEVC]

◎温馨提醒 为防资源和谐,请勿在线观看!

电锯惊魂8:竖锯.2017.4K.HDR.HEVC.内封英语中英特效双字.mkv_000340.237.jpg

电锯惊魂8:竖锯.2017.4K.HDR.HEVC.内封英语中英特效双字.mkv_001359.993.jpg

电锯惊魂8:竖锯.2017.4K.HDR.HEVC.内封英语中英特效双字.mkv_004148.895.jpg

电锯惊魂8:竖锯.2017.4K.HDR.HEVC.内封英语中英特效双字.mkv_010756.752.jpg

电锯惊魂8:竖锯.2017.4K.HDR.HEVC.内封英语中英特效双字.mkv_012451.440.jpg

电锯惊魂8:竖锯.2017.4K.HDR.HEVC.内封英语中英特效双字.jpg

  1. General
  2. Complete name                  : 电锯惊魂8:竖锯.2017.4K.HDR.HEVC.内封英语中英特效双字.mkv
  3. Format                         : Matroska
  4. Format version                 : Version 4
  5. File size                      : 18.0 GiB
  6. Duration                       : 1 h 31 min
  7. Overall bit rate mode          : Variable
  8. Overall bit rate               : 28.1 Mb/s
  9. Encoded date                   : UTC 2021-10-26 05:07:45
  10. Writing application            : mkvmerge v60.0.0 ('Are We Copies?') 64-bit
  11. Writing library                : libebml v1.4.2 + libmatroska v1.6.4

  12. Video
  13. ID                             : 1
  14. Format                         : HEVC
  15. Format/Info                    : High Efficiency Video Coding
  16. Format profile                 : Main 10@L5@Main
  17. HDR format                     : SMPTE ST 2086, HDR10 compatible
  18. Codec ID                       : V_MPEGH/ISO/HEVC
  19. Duration                       : 1 h 31 min
  20. Bit rate                       : 24.0 Mb/s
  21. Width                          : 3 840 pixels
  22. Height                         : 1 608 pixels
  23. Display aspect ratio           : 2.40:1
  24. Frame rate mode                : Constant
  25. Frame rate                     : 23.976 (24000/1001) FPS
  26. Color space                    : YUV
  27. Chroma subsampling             : 4:2:0 (Type 2)
  28. Bit depth                      : 10 bits
  29. Bits/(Pixel*Frame)             : 0.162
  30. Stream size                    : 15.4 GiB (86%)
  31. Writing library                : x265 3.5+2-g2b25c9ba0+45:[Windows][GCC 10.2.0][64 bit] Yuuki 10bit
  32. Language                       : English
  33. Default                        : Yes
  34. Forced                         : No
  35. Color range                    : Limited
  36. Color primaries                : BT.2020
  37. Transfer characteristics       : PQ
  38. Matrix coefficients            : BT.2020 non-constant
  39. Mastering display color primar : Display P3
  40. Mastering display luminance    : min: 0.0050 cd/m2, max: 1000 cd/m2
  41. Maximum Content Light Level    : 1000 cd/m2
  42. Maximum Frame-Average Light Le : 390 cd/m2

  43. Audio
  44. ID                             : 2
  45. Format                         : MLP FBA 16-ch
  46. Format/Info                    : Meridian Lossless Packing FBA with 16-channel presentation
  47. Commercial name                : Dolby TrueHD with Dolby Atmos
  48. Codec ID                       : A_TRUEHD
  49. Duration                       : 1 h 31 min
  50. Bit rate mode                  : Variable
  51. Bit rate                       : 3 853 kb/s
  52. Maximum bit rate               : 6 441 kb/s
  53. Channel(s)                     : 8 channels
  54. Channel layout                 : L R C LFE Ls Rs Lb Rb
  55. Sampling rate                  : 48.0 kHz
  56. Frame rate                     : 1 200.000 FPS (40 SPF)
  57. Compression mode               : Lossless
  58. Stream size                    : 2.47 GiB (14%)
  59. Title                          : 原声英语
  60. Language                       : English
  61. Default                        : Yes
  62. Forced                         : No
  63. Number of dynamic objects      : 11
  64. Bed channel count              : 1 channel
  65. Bed channel configuration      : LFE

  66. Text #1
  67. ID                             : 3
  68. Format                         : PGS
  69. Muxing mode                    : zlib
  70. Codec ID                       : S_HDMV/PGS
  71. Codec ID/Info                  : Picture based subtitle format used on BDs/HD-DVDs
  72. Duration                       : 1 h 26 min
  73. Bit rate                       : 161 kb/s
  74. Frame rate                     : 1.264 FPS
  75. Count of elements              : 6579
  76. Stream size                    : 99.6 MiB (0%)
  77. Title                          : 中英特效字幕. By.开心兔
  78. Language                       : Chinese
  79. Default                        : Yes
  80. Forced                         : No

  81. Text #2
  82. ID                             : 4
  83. Format                         : PGS
  84. Muxing mode                    : zlib
  85. Codec ID                       : S_HDMV/PGS
  86. Codec ID/Info                  : Picture based subtitle format used on BDs/HD-DVDs
  87. Duration                       : 1 h 26 min
  88. Bit rate                       : 139 kb/s
  89. Frame rate                     : 1.264 FPS
  90. Count of elements              : 6579
  91. Stream size                    : 86.2 MiB (0%)
  92. Title                          : 简中特效字幕. By.开心兔
  93. Language                       : Chinese
  94. Default                        : No
  95. Forced                         : No
复制代码

链接:https://www.aliyundrive.com/s/KBnAE1WzVvt
购买主题 本主题需向作者支付 12 金币 才能浏览
楼主热帖
人生得意须尽欢,莫使金樽空对月。

主题
27
积分
1847
热心值
80
金币
656
注册时间
2022-9-28
最后登录
2022-11-28
在线时间
35 小时

活跃会员最佳新人

 楼主| 发表于 2022-11-26 12:18 | 显示全部楼层
我来顶顶顶...贴来了└(^o^)┘。
人生得意须尽欢,莫使金樽空对月。
回复

使用道具 举报

主题
1
积分
4940
热心值
91
金币
147
注册时间
2022-4-21
最后登录
2022-11-28
在线时间
80 小时

最佳新人

发表于 2022-11-25 15:11 | 显示全部楼层
我来顶顶顶...贴来了└(^o^)┘。

① www.wpfx8.com 欢迎您分享自己的网盘资源!分享越多,金币越多!资源互利共享,我为人人,人人为我!
② 每个人都可以在本站发布资源帖,同时本站所有资源都需要金币才能下载!但是,只要你发布几十个优秀资源帖,基本上,你就会源源不断地获得金币了!
③ 如果发现违规广告资源,请点击帖子正文右下角的“举报”按钮。一般资源发布是有效的,时过境迁因为各种各样的原因,资源有可能失效。如果购买后发现资源失效或者资源和帖子内容描述不符,请到首页 [问题/意见反馈区] 发帖说明原因后申请退币。如“资源失效,申请退币”,管理员核实后会退币给您的。

回复

使用道具 举报

主题
4
积分
2314
热心值
51
金币
59
注册时间
2022-7-22
最后登录
2022-11-28
在线时间
44 小时

最佳新人活跃会员

发表于 2022-11-25 09:57 | 显示全部楼层
好高兴,终于找到这个资源了!
DR-DZ618H3妇科综合治疗机,DR-DZ68Y2-1,DR-DXJ2激光恒热综合治疗机,DR-DX828C,
微生态抗菌棒,思蜜康抗菌液
回复

使用道具 举报

主题
0
积分
5424
热心值
280
金币
589
注册时间
2021-4-14
最后登录
2022-11-28
在线时间
128 小时

最佳新人活跃会员

发表于 2022-11-25 09:40 | 显示全部楼层
楼主辛苦了,期待楼主大神分享更多网盘资源精品! >_<......

① www.wpfx8.com 欢迎您分享自己的网盘资源!分享越多,金币越多!资源互利共享,我为人人,人人为我!
② 每个人都可以在本站发布资源帖,同时本站所有资源都需要金币才能下载!但是,只要你发布几十个优秀资源帖,基本上,你就会源源不断地获得金币了!
③ 如果发现违规广告资源,请点击帖子正文右下角的“举报”按钮。一般资源发布是有效的,时过境迁因为各种各样的原因,资源有可能失效。如果购买后发现资源失效或者资源和帖子内容描述不符,请到首页 [问题/意见反馈区] 发帖说明原因后申请退币。如“资源失效,申请退币”,管理员核实后会退币给您的。

回复

使用道具 举报

主题
0
积分
3123
热心值
124
金币
282
注册时间
2022-3-21
最后登录
2022-11-29
在线时间
90 小时
发表于 2022-11-25 09:00 | 显示全部楼层
感谢楼主分享好资源,收藏了~

① www.wpfx8.com 欢迎您分享自己的网盘资源!分享越多,金币越多!资源互利共享,我为人人,人人为我!
② 每个人都可以在本站发布资源帖,同时本站所有资源都需要金币才能下载!但是,只要你发布几十个优秀资源帖,基本上,你就会源源不断地获得金币了!
③ 如果发现违规广告资源,请点击帖子正文右下角的“举报”按钮。一般资源发布是有效的,时过境迁因为各种各样的原因,资源有可能失效。如果购买后发现资源失效或者资源和帖子内容描述不符,请到首页 [问题/意见反馈区] 发帖说明原因后申请退币。如“资源失效,申请退币”,管理员核实后会退币给您的。

回复

使用道具 举报

主题
0
积分
2529
热心值
95
金币
82
注册时间
2022-6-21
最后登录
2022-11-29
在线时间
46 小时
发表于 2022-11-25 08:29 | 显示全部楼层
谢谢分享!!!!!!

① www.wpfx8.com 欢迎您分享自己的网盘资源!分享越多,金币越多!资源互利共享,我为人人,人人为我!
② 每个人都可以在本站发布资源帖,同时本站所有资源都需要金币才能下载!但是,只要你发布几十个优秀资源帖,基本上,你就会源源不断地获得金币了!
③ 如果发现违规广告资源,请点击帖子正文右下角的“举报”按钮。一般资源发布是有效的,时过境迁因为各种各样的原因,资源有可能失效。如果购买后发现资源失效或者资源和帖子内容描述不符,请到首页 [问题/意见反馈区] 发帖说明原因后申请退币。如“资源失效,申请退币”,管理员核实后会退币给您的。

回复

使用道具 举报

主题
3
积分
636
热心值
32
金币
27
注册时间
2022-11-1
最后登录
2022-11-29
在线时间
15 小时

最佳新人最佳新人

发表于 2022-11-25 08:16 | 显示全部楼层
好资源,感谢楼主无私的分享与奉献!
七子的树
回复

使用道具 举报

主题
0
积分
4545
热心值
324
金币
6454
注册时间
2022-2-22
最后登录
2022-11-29
在线时间
295 小时

最佳新人活跃会员

发表于 2022-11-25 08:12 | 显示全部楼层
一集一集发
也想发资源 但又懒得弄
回复

使用道具 举报

主题
7
积分
800
热心值
20
金币
71
注册时间
2022-10-16
最后登录
2022-11-29
在线时间
23 小时
发表于 2022-11-25 07:04 | 显示全部楼层
看看 这个片子 听说吓人!!!

① www.wpfx8.com 欢迎您分享自己的网盘资源!分享越多,金币越多!资源互利共享,我为人人,人人为我!
② 每个人都可以在本站发布资源帖,同时本站所有资源都需要金币才能下载!但是,只要你发布几十个优秀资源帖,基本上,你就会源源不断地获得金币了!
③ 如果发现违规广告资源,请点击帖子正文右下角的“举报”按钮。一般资源发布是有效的,时过境迁因为各种各样的原因,资源有可能失效。如果购买后发现资源失效或者资源和帖子内容描述不符,请到首页 [问题/意见反馈区] 发帖说明原因后申请退币。如“资源失效,申请退币”,管理员核实后会退币给您的。

回复

使用道具 举报

点击按钮快速添加回复内容: 超赞 高兴 激动 给力 收藏 支持 期待 顶帖 精彩 感谢
您需要登录后才可以回帖 登录 | 立即注册

本版积分规则

站长邮箱|sitemap|手机版|小黑屋|百度统计|标签搜索|网盘分享吧

GMT+8, 2022-11-29 09:27 , Processed in 0.244273 second(s), 46 queries .

Powered by Discuz! X3.4

Copyright © 2001-2021, Tencent Cloud.

快速回复 返回顶部 返回列表